\m/ 80's metal \m/

Информационно-аналитический форум "80 см пыли" (In Search We Trust) "У нас никто никуда не спешит"
Me For You - http://me-4u.com
It is currently 15 Nov 2019

All times are UTC + 3 hours

Spoiler
Chat - temporary registration for foreign users (please leave your application here)







Post new topic Reply to topic  [ 10 posts ] 
Author Message
 
PostPosted: 19 Apr 2011 
Работнечег
User avatar
Joined: 28 Aug 2007
Posts: 6061
Lоcаtion: г. Москва
Age: 30
Name: Дима
Image

Band: Killers
Album: Fils De La Haine
Label: ?
Genre: Speed Metal
Country: France
Format: Flac + Log + Cue + Covers
Size: 275 Mb

Tracklist:
1. Le fils de la haine 03:45
2. Sacrifice 03:00
3. Rosalind 05:40
4. Pense à ton suicide 03:40
5. Au nom du rock'n'roll 03:25
6. Killers 04:50
7. Mercenaire 02:20
8. Le magicien d'Oz 04:50
9. Heavy metal 04:00
10. Chevaliers du déshonneur 03:30
11. Ahachtachta Chtilabeh!!! 00:25

LOG
Exact Audio Copy V0.99 prebeta 5 from 4. May 2009

EAC extraction logfile from 9. April 2011, 16:34

Killers / ...Fils De La Haine

Used drive : PIONEER DVD-RW DVR-116D Adapter: 0 ID: 0

Read mode : Secure
Utilize accurate stream : Yes
Defeat audio cache : Yes
Make use of C2 pointers : No

Read offset correction : 96
Overread into Lead-In and Lead-Out : No
Fill up missing offset samples with silence : Yes
Delete leading and trailing silent blocks : No
Null samples used in CRC calculations : Yes
Used interface : Native Win32 interface for Win NT & 2000

Used output format : User Defined Encoder
Selected bitrate : 32 kBit/s
Quality : High
Add ID3 tag : No
Command line compressor : C:\Program Files\Exact Audio Copy\Flac\flac.exe
Additional command line options : -6 -V %s


TOC of the extracted CD

Track | Start | Length | Start sector | End sector
---------------------------------------------------------
1 | 0:00.00 | 3:43.48 | 0 | 16772
2 | 3:43.48 | 3:02.57 | 16773 | 30479
3 | 6:46.30 | 5:36.38 | 30480 | 55717
4 | 12:22.68 | 3:37.44 | 55718 | 72036
5 | 16:00.37 | 3:23.17 | 72037 | 87278
6 | 19:23.54 | 4:47.19 | 87279 | 108822
7 | 24:10.73 | 2:19.69 | 108823 | 119316
8 | 26:30.67 | 4:50.59 | 119317 | 141125
9 | 31:21.51 | 4:00.60 | 141126 | 159185
10 | 35:22.36 | 3:28.15 | 159186 | 174800
11 | 38:50.51 | 0:22.00 | 174801 | 176450


Range status and errors

Selected range

Filename D:\Музыка\Lossless\Killers - ... Fils De La Haine (1985)\Killers - ...Fils De La Haine.wav

Peak level 98.8 %
Range quality 99.9 %
Copy CRC 3248C9EA
Copy OK

No errors occurred


AccurateRip summary

Track 1 cannot be verified as accurate (confidence 2) [011A661E], AccurateRip returned [73E31BEC]
Track 2 cannot be verified as accurate (confidence 2) [E94D9359], AccurateRip returned [69EA2D61]
Track 3 cannot be verified as accurate (confidence 2) [839BEF22], AccurateRip returned [67BD56FC]
Track 4 cannot be verified as accurate (confidence 2) [3412FBAC], AccurateRip returned [1B89F927]
Track 5 cannot be verified as accurate (confidence 2) [A856CD32], AccurateRip returned [5E81822E]
Track 6 cannot be verified as accurate (confidence 2) [5ECFA25E], AccurateRip returned [97B4FCB7]
Track 7 cannot be verified as accurate (confidence 2) [70AE102E], AccurateRip returned [B92A3EBE]
Track 8 cannot be verified as accurate (confidence 2) [6CBDE3A3], AccurateRip returned [C3DEF425]
Track 9 cannot be verified as accurate (confidence 2) [74D84BEC], AccurateRip returned [FF072A07]
Track 10 cannot be verified as accurate (confidence 2) [C4FFD919], AccurateRip returned [B92C8530]
Track 11 cannot be verified as accurate (confidence 2) [966ABD5B], AccurateRip returned [9D9B9F85]

No tracks could be verified as accurate
You may have a different pressing from the one(s) in the database

End of status report

CUE
REM GENRE "Speed Metal"
REM DATE 1985
REM DISCID 8809300B
REM COMMENT "ExactAudioCopy v0.99pb5"
PERFORMER "Killers"
TITLE "...Fils De La Haine"
FILE "Killers - ...Fils De La Haine.flac" WAVE
TRACK 01 AUDIO
TITLE "Le Fils De La Haine"
PERFORMER "Killers"
FLAGS DCP
INDEX 01 00:00:00
TRACK 02 AUDIO
TITLE "Sacrifice"
PERFORMER "Killers"
FLAGS DCP
INDEX 00 03:41:48
INDEX 01 03:43:48
TRACK 03 AUDIO
TITLE "Rosalind"
PERFORMER "Killers"
FLAGS DCP
INDEX 00 06:44:30
INDEX 01 06:46:30
TRACK 04 AUDIO
TITLE "Pense A Ton Suicide"
PERFORMER "Killers"
FLAGS DCP
INDEX 00 12:20:68
INDEX 01 12:22:68
TRACK 05 AUDIO
TITLE "Au Nom Du Rock 'N' Roll"
PERFORMER "Killers"
FLAGS DCP
INDEX 00 15:58:37
INDEX 01 16:00:37
TRACK 06 AUDIO
TITLE "Killers"
PERFORMER "Killers"
FLAGS DCP
INDEX 00 19:21:54
INDEX 01 19:23:54
TRACK 07 AUDIO
TITLE "Mercenaire"
PERFORMER "Killers"
FLAGS DCP
INDEX 00 24:08:73
INDEX 01 24:10:73
TRACK 08 AUDIO
TITLE "Le Magicien d'Oz"
PERFORMER "Killers"
FLAGS DCP
INDEX 00 26:28:67
INDEX 01 26:30:67
TRACK 09 AUDIO
TITLE "Heavy Metal"
PERFORMER "Killers"
FLAGS DCP
INDEX 00 31:19:51
INDEX 01 31:21:51
TRACK 10 AUDIO
TITLE "Chevaliers Du Deshonneur"
PERFORMER "Killers"
FLAGS DCP
INDEX 00 35:20:36
INDEX 01 35:22:36
TRACK 11 AUDIO
TITLE "Ahachtachta Chtilabeh !!!"
PERFORMER "Killers"
FLAGS DCP
INDEX 00 38:48:51
INDEX 01 38:50:51

Spectrum
Image


Narod.Ru

Это по ходу дела переиздание, которое делала сама группа, поскольку опознавательных знаков какого-либо лейбла я не нашёл, но брал с официалки.


Top
 Profile E-mail  
 
 
PostPosted: 19 Apr 2011 
Прокъмитолист
User avatar
Joined: 12 Aug 2007
Posts: 6636
Lоcаtion: Санктъ-Петербуркъ
Age: 52
Name: Олекъ
на всякий случай и тут спасибо :crazy: :true:

_________________
прокъметол - это музыко, от которово есть прок (ы)


Top
 Profile  
 
 
PostPosted: 19 Apr 2011 
Работнечег
User avatar
Joined: 28 Aug 2007
Posts: 6061
Lоcаtion: г. Москва
Age: 30
Name: Дима
чего-то расплодил я тем... :crazy:


Top
 Profile E-mail  
 
 
PostPosted: 29 May 2011 
Хиппей (support team)
User avatar
Joined: 30 Jul 2007
Posts: 115541
Lоcаtion: Киев (Kyiv, UA)
Age: 46
Name: Andrey
:thanx:

mirror: MultiUp l Narod

_________________


Top
 Profile E-mail  
 
 
PostPosted: 29 May 2011 
Я набрал 1000 сообщений!
User avatar
Joined: 25 Dec 2008
Posts: 1545
Age: 44
Name: Павел
church wrote:
по ходу дела переиздание, которое делала сама группа

Да вроде Brennus. :umnik:


Top
 Profile  
 
 
PostPosted: 27 Jun 2011 
Работнечег
User avatar
Joined: 28 Aug 2007
Posts: 6061
Lоcаtion: г. Москва
Age: 30
Name: Дима
Не, Паш, не бреннус. у меня дисков 6-7 Killers, этот явно выделяется от остальных, как по буклету, так и по отсутствию опознавательных знаков. На бреннусовских дисках сбоку всегда пишется а-ля BR 8015 AR, не знаю как это по-научному называется, а тут нет ничего. На старой версии метал-архивов было написано, что помимо Reissued by Brennus In 1997, Released as MAD... in 2008, чего-то вроде того. Думаю, что тираж бреннусовский закончился и группа переиздала сама, очень похоже на это)
P.S. и бумага такая бюджетная в буклетике, тоненькая))


Top
 Profile E-mail  
 
 
PostPosted: 08 Nov 2011 
Power Metal Maniac
User avatar
Joined: 09 Aug 2008
Posts: 6958
Lоcаtion: Москва
Age: 41
Name: Егор
:thanx:

_________________
Long Live Metal!


Top
 Profile  
 
 
PostPosted: 14 Nov 2011 
ТрэшЭрос
User avatar
Joined: 18 Jul 2011
Posts: 2306
Lоcаtion: Гулькевичи
Age: 44
Name: Александр
У меня так:
Image

А у вас? :oops:

_________________
Thrash no trash!!!


Top
 Profile E-mail  
 
 
PostPosted: 10 Dec 2017 
5-speed satisfactor
User avatar
Joined: 16 Feb 2009
Posts: 3774
Lоcаtion: New York, USA
Age: 41
Name: Leonid
A есть у кого первопресс KIL198501?

_________________
Death rules! Metal to all who oppose!


Top
 Profile  
 
 
PostPosted: 16 Dec 2017 
Работнечег
User avatar
Joined: 28 Aug 2007
Posts: 6061
Lоcаtion: г. Москва
Age: 30
Name: Дима
Маловероятно, слишком редкая штука :(


Top
 Profile E-mail  
 
Display posts from previous:  Sort by  
Post new topic Reply to topic  [ 10 posts ] 

All times are UTC + 3 hours


Who is online

Users browsing this forum: No registered users and 1 guest


You cannot post new topics in this forum
You cannot reply to topics in this forum
You cannot edit your posts in this forum
You cannot delete your posts in this forum
You cannot post attachments in this forum

Search for:
Яндекс.Метрика
Powered by phpBB © 2000, 2002, 2005, 2007 phpBB Group