\m/ 80's metal \m/

Информационно-аналитический форум "80 см пыли" (In Search We Trust) "У нас никто никуда не спешит"
Me For You - http://me-4u.com
It is currently 22 May 2019

All times are UTC + 3 hours

Spoiler
Chat - temporary registration for foreign users (please leave your application here)







Post new topic Reply to topic  [ 5 posts ] 
Author Message
 
PostPosted: 15 Mar 2011 
Генеральный thrasher
User avatar
Joined: 03 Oct 2008
Posts: 3705
Lоcаtion: Ханты-Мансийский АО
Age: 44
Name: Сергей
Image

Year:1991
Style:Heavy/Thrash Metal
Country:Czech Republic
Audio:Flac+Cue+Log+Full Scans
Size:267Mb
Label:Monitor Records

Line-Up:
Josef Vojtek - Vocals
Milan Spalek - Bass
Tomas Krulich - Guitar
Ota Vana - Guitar
Radek Hurcik - Drums

Tracklist:
01. Dr. Bambus 02:52
02. Orgie 03:20
03. A šel... 02:52
04. Nechte mě bejt 02:49
05. Fuck'n'roll 03:17
06. Máš to už za sebou 02:27
07. Má jí motorovou 03:12
08. Skrblík 03:24
09. Sex, pervers 02:57
10. Rebel 02:07
11. Vasil 02:43
12. Sex, Drogy, Rock'n'roll 02:16
13. Pašík 02:03

Cue
REM ACCURATERIPID 00129499-00b88f20-c408a10d
REM DISCID C408A10D
REM COMMENT "ExactAudioCopy v0.99pb4"
REM DATE 1991
REM GENRE "Rock"
PERFORMER "Kabat"
TITLE "Ma ji motorovou"
FILE "Kabat - Ma ji motorovou.flac" WAVE
TRACK 01 AUDIO
TITLE "Dr. Bambus"
PERFORMER "Kabat"
INDEX 01 00:00:00
TRACK 02 AUDIO
TITLE "Orgie"
PERFORMER "Kabat"
INDEX 00 02:52:05
INDEX 01 02:54:04
TRACK 03 AUDIO
TITLE "A Sel..."
PERFORMER "Kabat"
INDEX 00 06:14:70
INDEX 01 06:16:70
TRACK 04 AUDIO
TITLE "Nechte Me Bejt"
PERFORMER "Kabat"
INDEX 00 09:09:24
INDEX 01 09:11:24
TRACK 05 AUDIO
TITLE "Fuck 'N' Roll"
PERFORMER "Kabat"
INDEX 00 12:00:48
INDEX 01 12:02:48
TRACK 06 AUDIO
TITLE "Mas To Uz Za Sebou"
PERFORMER "Kabat"
INDEX 00 15:20:15
INDEX 01 15:22:15
TRACK 07 AUDIO
TITLE "Ma Ji Motorovou"
PERFORMER "Kabat"
INDEX 00 17:49:64
INDEX 01 17:51:64
TRACK 08 AUDIO
TITLE "Skrblik"
PERFORMER "Kabat"
INDEX 00 21:04:38
INDEX 01 21:06:38
TRACK 09 AUDIO
TITLE "Sex, Pervers"
PERFORMER "Kabat"
INDEX 00 24:30:59
INDEX 01 24:32:59
TRACK 10 AUDIO
TITLE "Rebel"
PERFORMER "Kabat"
INDEX 00 27:30:36
INDEX 01 27:32:36
TRACK 11 AUDIO
TITLE "Vasil"
PERFORMER "Kabat"
INDEX 00 29:40:00
INDEX 01 29:42:00
TRACK 12 AUDIO
TITLE "Sex, Drogy, Rock 'N' Roll"
PERFORMER "Kabat"
INDEX 00 32:25:14
INDEX 01 32:27:14
TRACK 13 AUDIO
TITLE "Pasik"
PERFORMER "Kabat"
INDEX 00 34:44:05
INDEX 01 34:46:05


Log
EAC extraction logfile from 22. February 2011, 14:38

Kabat / Ma ji motorovou

Used drive : TSSTcorp CDDVDW SE-S224Q Adapter: 1 ID: 0

Read mode : Secure
Utilize accurate stream : Yes
Defeat audio cache : Yes
Make use of C2 pointers : No

Read offset correction : 6
Overread into Lead-In and Lead-Out : No
Fill up missing offset samples with silence : Yes
Delete leading and trailing silent blocks : No
Null samples used in CRC calculations : Yes
Used interface : Native Win32 interface for Win NT & 2000

Used output format : Internal WAV Routines
Sample format : 44.100 Hz; 16 Bit; Stereo


TOC of the extracted CD

Track | Start | Length | Start sector | End sector
---------------------------------------------------------
1 | 0:00.00 | 2:54.04 | 0 | 13053
2 | 2:54.04 | 3:22.66 | 13054 | 28269
3 | 6:16.70 | 2:54.29 | 28270 | 41348
4 | 9:11.24 | 2:51.24 | 41349 | 54197
5 | 12:02.48 | 3:19.42 | 54198 | 69164
6 | 15:22.15 | 2:29.49 | 69165 | 80388
7 | 17:51.64 | 3:14.49 | 80389 | 94987
8 | 21:06.38 | 3:26.21 | 94988 | 110458
9 | 24:32.59 | 2:59.52 | 110459 | 123935
10 | 27:32.36 | 2:09.39 | 123936 | 133649
11 | 29:42.00 | 2:45.14 | 133650 | 146038
12 | 32:27.14 | 2:18.66 | 146039 | 156454
13 | 34:46.05 | 2:03.57 | 156455 | 165736


Range status and errors

Selected range

Filename C:\Users\oldrock\Music\Kabat\1991 - Ma ji motorovou\Kabat - Ma ji motorovou.wav

Peak level 95.8 %
Range quality 100.0 %
Test CRC AA7F3981
Copy CRC AA7F3981
Copy OK

No errors occurred


AccurateRip summary

Track 1 not present in database
Track 2 not present in database
Track 3 not present in database
Track 4 not present in database
Track 5 not present in database
Track 6 not present in database
Track 7 not present in database
Track 8 not present in database
Track 9 not present in database
Track 10 not present in database
Track 11 not present in database
Track 12 not present in database
Track 13 not present in database

None of the tracks are present in the AccurateRip database

End of status report


MA JI MOTOROVOU


Top
 Profile  
 
 
PostPosted: 16 Mar 2011 
Хиппей (support team)
User avatar
Joined: 30 Jul 2007
Posts: 112665
Lоcаtion: Киев (Kyiv, UA)
Age: 45
Name: Andrey
:thanx:

mirror: MultiUp l Narod

_________________


Top
 Profile E-mail  
 
 
PostPosted: 16 Mar 2011 
*** Умер ***
User avatar
Joined: 25 Apr 2009
Posts: 2188
Lоcаtion: Санкт-Петербург
Age: 33
Name: Кирилл
Нравится группа. :thanx:


Top
 Profile E-mail  
 
 
PostPosted: 16 Mar 2011 
Пионэръ
Joined: 27 Aug 2010
Posts: 10
Lоcаtion: England
Name: Ken
спасибо!


Top
 Profile E-mail  
 
 
PostPosted: 16 Mar 2011 
Доктор энтомологии
User avatar
Joined: 22 Jan 2009
Posts: 9738
Lоcаtion: Даугавпилс
Age: 44
Name: Алексей
Какая я то баба (с вилами) еще в составе есть, вон с леву на обожке на всех нас смотрит :crazy:
Nekrologist :drink:


Top
 Profile  
 
Display posts from previous:  Sort by  
Post new topic Reply to topic  [ 5 posts ] 

All times are UTC + 3 hours


Who is online

Users browsing this forum: No registered users and 1 guest


You cannot post new topics in this forum
You cannot reply to topics in this forum
You cannot edit your posts in this forum
You cannot delete your posts in this forum
You cannot post attachments in this forum

Search for:
Яндекс.Метрика
Powered by phpBB © 2000, 2002, 2005, 2007 phpBB Group