\m/ 80's metal \m/

Информационно-аналитический форум "80 см пыли" (In Search We Trust) "У нас никто никуда не спешит"
Me For You - http://me-4u.com
It is currently 26 Mar 2019

All times are UTC + 3 hours

Spoiler
Chat - temporary registration for foreign users (please leave your application here)







Post new topic Reply to topic  [ 8 posts ] 
Author Message
 
PostPosted: 22 Oct 2010 
ыыыы
User avatar
Joined: 17 May 2009
Posts: 952
Lоcаtion: Пушкино, МО
Age: 40
Name: Дмитрий
Image


Жанр: Hard Rock
Происхождение исполнителя: США
Год издания: 1989
Год издания данного носителя: 1989
Страна-производитель носителя: Япония
Аудио кодек: FLAC
Тип рипа: image+.cue
Битрейт аудио: lossless
Продолжительность: 58:52
Рип: Собственный
Лейбл: MERCURY/NIPPON PHONOGRAM
Каталоговый номер: PPD-1070
Матрица: 838 913-2-A1F 11 (JVC)

Треклист:
1. Rise to It 04:05
2. Betrayed 03:40
3. Hide Your Heart 04:26
4. Prisoner of Love 03:45
5. Read My Body 03:49
6. Love's a Slap in the Face 04:05
7. Forever 03:53
8. Silver Spoon 04:43
9. Cadillac Dreams 03:48
10. King of Hearts 04:27
11. The Street Giveth and the Street Taketh Away 03:32
12. You Love Me to Hate You 04:04
13. Somewhere Between Heaven and Hell 03:49
14. Little Caesar 03:12
15. Boomerang 03:33

"Куй"
REM GENRE "Hard Rock"
REM DATE 1989
REM DISCID DE0DCC0F
REM COMMENT "ExactAudioCopy v0.99pb5"
PERFORMER "Kiss"
TITLE "Hot In The Shade [PPD-1070]"
FILE "Kiss - Hot In The Shade [PPD-1070].flac" WAVE
TRACK 01 AUDIO
TITLE "Rise To It"
PERFORMER "Kiss"
INDEX 00 00:00:00
INDEX 01 00:00:37
TRACK 02 AUDIO
TITLE "Betrayed"
PERFORMER "Kiss"
INDEX 01 04:05:47
TRACK 03 AUDIO
TITLE "Hide Your Heart"
PERFORMER "Kiss"
INDEX 01 07:45:42
TRACK 04 AUDIO
TITLE "Prisoner Of Love"
PERFORMER "Kiss"
INDEX 00 12:10:09
INDEX 01 12:11:27
TRACK 05 AUDIO
TITLE "Read My Body"
PERFORMER "Kiss"
INDEX 00 15:56:20
INDEX 01 15:56:50
TRACK 06 AUDIO
TITLE "Love's A Slap In The Face"
PERFORMER "Kiss"
INDEX 01 19:45:57
TRACK 07 AUDIO
TITLE "Forever"
PERFORMER "Kiss"
INDEX 00 23:50:12
INDEX 01 23:51:07
TRACK 08 AUDIO
TITLE "Silver Spoon"
PERFORMER "Kiss"
INDEX 01 27:44:25
TRACK 09 AUDIO
TITLE "Cadillac Dreams"
PERFORMER "Kiss"
INDEX 00 32:26:68
INDEX 01 32:27:17
TRACK 10 AUDIO
TITLE "King Of Hearts"
PERFORMER "Kiss"
INDEX 00 36:14:52
INDEX 01 36:15:12
TRACK 11 AUDIO
TITLE "The Street Giveth And The Street Taketh Away"
PERFORMER "Kiss"
INDEX 00 40:41:62
INDEX 01 40:42:25
TRACK 12 AUDIO
TITLE "You Love Me To Hate You"
PERFORMER "Kiss"
INDEX 00 44:13:08
INDEX 01 44:14:50
TRACK 13 AUDIO
TITLE "Somewhere Between Heaven And Hell"
PERFORMER "Kiss"
INDEX 00 48:18:15
INDEX 01 48:18:55
TRACK 14 AUDIO
TITLE "Little Caesar"
PERFORMER "Kiss"
INDEX 00 52:06:62
INDEX 01 52:07:47
TRACK 15 AUDIO
TITLE "Boomerang"
PERFORMER "Kiss"
INDEX 00 55:18:47
INDEX 01 55:19:35


"Лог"
Exact Audio Copy V0.99 prebeta 5 from 4. May 2009

Отчёт EAC об извлечении, выполненном 20. октября 2010, 11:48

Kiss / Hot In The Shade [PPD-1070]

Дисковод: Optiarc DVD RW AD-7200A Adapter: 1 ID: 0

Режим чтения : Достоверность
Использование точного потока : Да
Отключение кэша аудио : Да
Использование указателей C2 : Нет

Коррекция смещения при чтении : 48
Способность читать области Lead-in и Lead-out : Нет
Заполнение пропущенных сэмплов тишиной : Да
Удаление блоков с тишиной в начале и конце : Нет
При вычислениях CRC использовались нулевые сэмплы : Да
Интерфейс : Встроенный Win32-интерфейс для Win NT/2000

Выходной формат : Пользовательский кодировщик
Выбранный битрейт : 128 kBit/s
Качество : Высокий
Добавление ID3-тэга : Нет
Утилита сжатия : C:\Program Files\Exact Audio Copy\Flac\flac.exe
Дополнительные параметры : -8 -V -T "artist=%a" -T "title=%t" -T "album=%g" -T "date=%y" -T "tracknumber=%n" -T "genre=%m" -T "comment=EAC


TOC извлечённого CD

Трек | Старт | Длительность | Начальный сектор | Конечный сектор
---------------------------------------------------------------------
1 | 0:00.37 | 4:05.10 | 37 | 18421
2 | 4:05.47 | 3:39.70 | 18422 | 34916
3 | 7:45.42 | 4:25.60 | 34917 | 54851
4 | 12:11.27 | 3:45.23 | 54852 | 71749
5 | 15:56.50 | 3:49.07 | 71750 | 88931
6 | 19:45.57 | 4:05.25 | 88932 | 107331
7 | 23:51.07 | 3:53.18 | 107332 | 124824
8 | 27:44.25 | 4:42.67 | 124825 | 146041
9 | 32:27.17 | 3:47.70 | 146042 | 163136
10 | 36:15.12 | 4:27.13 | 163137 | 183174
11 | 40:42.25 | 3:32.25 | 183175 | 199099
12 | 44:14.50 | 4:04.05 | 199100 | 217404
13 | 48:18.55 | 3:48.67 | 217405 | 234571
14 | 52:07.47 | 3:11.63 | 234572 | 248959
15 | 55:19.35 | 3:33.00 | 248960 | 264934


Характеристики диапазона извлечения и сообщения об ошибках

Выбранный диапазон

Имя файла Y:\Музыка\Kiss\1989 Hot In The Shade\Kiss - Hot In The Shade [PPD-1070].wav

Пиковый уровень 100.0 %
Качество диапазона 100.0 %
CRC копии D29556C3
Копирование... OK

Ошибок не произошло


AccurateRip: сводка

Трек 1 нет в базе данных
Трек 2 нет в базе данных
Трек 3 нет в базе данных
Трек 4 нет в базе данных
Трек 5 нет в базе данных
Трек 6 нет в базе данных
Трек 7 нет в базе данных
Трек 8 нет в базе данных
Трек 9 нет в базе данных
Трек 10 нет в базе данных
Трек 11 нет в базе данных
Трек 12 нет в базе данных
Трек 13 нет в базе данных
Трек 14 нет в базе данных
Трек 15 нет в базе данных

Ни одного трека нет в базе AccurateRip

Конец отчёта


Состав:
Paul Stanley: Rhythm guitar, lead vocals
Gene Simmons: Bass guitar, lead vocals
Bruce Kulick: Lead guitar, backing vocals, bass on "Forever"
Eric Carr: Drums, percussion, vocals, bass on "Little Caesar"

PPD-1070

_________________
Витасу до Даймонда как Алсу до Руссоса | При переразмещении - спрашивать разрешение!!


Top
 Profile  
 
 
PostPosted: 22 Oct 2010 
дядя Миша
User avatar
Joined: 17 Oct 2008
Posts: 3095
Lоcаtion: USSR
Age: 56
Name: Khy
Помню купил фирменный винил в Москве , на Калининском пр. в Мелодии. Тогда накупил полно пластмассы , ели допёр.
Спасибо Дима!


Top
 Profile  
 
 
PostPosted: 22 Oct 2010 
Позитивный Южанин
User avatar
Joined: 07 May 2010
Posts: 1620
Lоcаtion: КРЫМ
Age: 43
Name: Алексей
VARVAAR wrote:
Помню купил фирменный винил в Москве , на Калининском пр. в Мелодии. Тогда накупил полно пластмассы , ели допёр.
Спасибо Дима!


В Москве хорошая Мелодия была,фарцы под лестницей промышляли в своё время...

_________________
WATER'EM ALL!


Top
 Profile E-mail  
 
 
PostPosted: 25 Oct 2010 
ыыыы
User avatar
Joined: 17 May 2009
Posts: 952
Lоcаtion: Пушкино, МО
Age: 40
Name: Дмитрий
VARVAAR
На здоровье, дядь Миш! Как тебе Вивальди? Сильверштейн играет на скрипке Guarneri del Jesu 1742 года

_________________
Витасу до Даймонда как Алсу до Руссоса | При переразмещении - спрашивать разрешение!!


Top
 Profile  
 
 
PostPosted: 25 Oct 2010 
дядя Миша
User avatar
Joined: 17 Oct 2008
Posts: 3095
Lоcаtion: USSR
Age: 56
Name: Khy
Вивальди всегда очень душевен. Замечательный шедевр , великолепное исполнение.


Top
 Profile  
 
 
PostPosted: 25 Oct 2010 
ыыыы
User avatar
Joined: 17 May 2009
Posts: 952
Lоcаtion: Пушкино, МО
Age: 40
Name: Дмитрий
скоро будет Мусоргский- Ночь на лысой горе и Катринки с выставки- того же издания

_________________
Витасу до Даймонда как Алсу до Руссоса | При переразмещении - спрашивать разрешение!!


Top
 Profile  
 
 
PostPosted: 25 Oct 2010 
дядя Миша
User avatar
Joined: 17 Oct 2008
Posts: 3095
Lоcаtion: USSR
Age: 56
Name: Khy
iezuit wrote:
скоро будет Мусоргский- Ночь на лысой горе и Катринки с выставки- того же издания


Жду , Дима , спасибище ! Надо тебе ящик "киру" поставить.


Top
 Profile  
 
 
PostPosted: 25 Oct 2010 
Alive Again
User avatar
Joined: 17 Dec 2008
Posts: 4747
Lоcаtion: Курск Воронеж Оскол
Age: 44
Name: Дмитрий
Дим, спасибо большое!
Люблю этот альбом!


Top
 Profile E-mail  
 
Display posts from previous:  Sort by  
Post new topic Reply to topic  [ 8 posts ] 

All times are UTC + 3 hours


Who is online

Users browsing this forum: No registered users and 1 guest


You cannot post new topics in this forum
You cannot reply to topics in this forum
You cannot edit your posts in this forum
You cannot delete your posts in this forum
You cannot post attachments in this forum

Search for:
Яндекс.Метрика
Powered by phpBB © 2000, 2002, 2005, 2007 phpBB Group