\m/ 80's metal \m/

Информационно-аналитический форум "80 см пыли" (In Search We Trust) "У нас никто никуда не спешит"
Me For You - http://me-4u.com
It is currently 19 May 2019

All times are UTC + 3 hours

Spoiler
Chat - temporary registration for foreign users (please leave your application here)







Post new topic Reply to topic  [ 5 posts ] 
Author Message
 
PostPosted: 21 Sep 2010 
ыыыы
User avatar
Joined: 17 May 2009
Posts: 952
Lоcаtion: Пушкино, МО
Age: 40
Name: Дмитрий
Image


Жанр: Hard Rock
Происхождение исполнителя: США
Год издания: 1988
Год издания данного носителя: 1988
Страна-производитель носителя: Япония
Аудио кодек: FLAC
Тип рипа: image+.cue
Битрейт аудио: lossless
Продолжительность: 60:01
Рип: Собственный
Лейбл: POLYSTAR
Каталоговый номер: P30R-20008
Матрица: P30R-20008-A1E 13 (JVC)

Треклист:
1. Rock and Roll All Nite 02:48
2. Detroit Rock City 05:14
3. Love Gun 03:17
4. I Was Made for Lovin' You (Remix 07:56
5. Creatures of the Night (Remix) 04:05
6. I Love It Loud (Remix) 04:15
7. War Machine (Remix) 04:15
8. Lick It Up 03:55
9. All Hell's Breakin' Loose 04:33
10. Heaven's on Fire 03:21
11. Thrills in the Night 04:21
12. Who Wants to Be Lonely 04:01
13. Uh! All Night 04:02
14. Tears Are Falling 03:56

"Куй"
REM GENRE "Hard Rock"
REM DATE 1988
REM DISCID C00E110E
REM COMMENT "ExactAudioCopy v0.99pb5"
PERFORMER "Kiss"
TITLE "Chikara [P30R-20008]"
FILE "Kiss - Chikara [P30R-20008].flac" WAVE
TRACK 01 AUDIO
TITLE "Rock And Roll All Nite"
PERFORMER "Kiss"
INDEX 00 00:00:00
INDEX 01 00:00:37
TRACK 02 AUDIO
TITLE "Detroit Rock City"
PERFORMER "Kiss"
INDEX 01 02:48:67
TRACK 03 AUDIO
TITLE "Love Gun"
PERFORMER "Kiss"
INDEX 01 08:03:12
TRACK 04 AUDIO
TITLE "I Was Made For Lovin' You"
PERFORMER "Kiss"
INDEX 00 11:20:29
INDEX 01 11:20:30
TRACK 05 AUDIO
TITLE "Creatures Of The Night"
PERFORMER "Kiss"
INDEX 00 19:16:41
INDEX 01 19:16:42
TRACK 06 AUDIO
TITLE "I Love It Loud"
PERFORMER "Kiss"
INDEX 00 23:19:19
INDEX 01 23:21:32
TRACK 07 AUDIO
TITLE "War Machine"
PERFORMER "Kiss"
INDEX 01 27:36:62
TRACK 08 AUDIO
TITLE "Lick It Up"
PERFORMER "Kiss"
INDEX 01 31:52:07
TRACK 09 AUDIO
TITLE "All Hell's Breakin' Loose"
PERFORMER "Kiss"
INDEX 00 35:47:39
INDEX 01 35:47:40
TRACK 10 AUDIO
TITLE "Heaven's On Fire"
PERFORMER "Kiss"
INDEX 01 40:20:67
TRACK 11 AUDIO
TITLE "Thrills In The Night"
PERFORMER "Kiss"
INDEX 00 43:41:29
INDEX 01 43:41:30
TRACK 12 AUDIO
TITLE "Who Wants To Be Lonely"
PERFORMER "Kiss"
INDEX 01 48:02:62
TRACK 13 AUDIO
TITLE "Uh! All Night"
PERFORMER "Kiss"
INDEX 00 52:03:59
INDEX 01 52:03:60
TRACK 14 AUDIO
TITLE "Tears Are Falling"
PERFORMER "Kiss"
INDEX 00 56:05:29
INDEX 01 56:05:30


"Лог"
Exact Audio Copy V0.99 prebeta 5 from 4. May 2009

Отчёт EAC об извлечении, выполненном 21. сентября 2010, 11:19

Kiss / Chikara [P30R-20008]

Дисковод: Optiarc DVD RW AD-7200A Adapter: 1 ID: 0

Режим чтения : Достоверность
Использование точного потока : Да
Отключение кэша аудио : Да
Использование указателей C2 : Нет

Коррекция смещения при чтении : 48
Способность читать области Lead-in и Lead-out : Нет
Заполнение пропущенных сэмплов тишиной : Да
Удаление блоков с тишиной в начале и конце : Нет
При вычислениях CRC использовались нулевые сэмплы : Да
Интерфейс : Встроенный Win32-интерфейс для Win NT/2000

Выходной формат : Пользовательский кодировщик
Выбранный битрейт : 128 kBit/s
Качество : Высокий
Добавление ID3-тэга : Нет
Утилита сжатия : C:\Program Files\Exact Audio Copy\Flac\flac.exe
Дополнительные параметры : -8 -V -T "artist=%a" -T "title=%t" -T "album=%g" -T "date=%y" -T "tracknumber=%n" -T "genre=%m" -T "comment=EAC


TOC извлечённого CD

Трек | Старт | Длительность | Начальный сектор | Конечный сектор
---------------------------------------------------------------------
1 | 0:00.37 | 2:48.30 | 37 | 12666
2 | 2:48.67 | 5:14.20 | 12667 | 36236
3 | 8:03.12 | 3:17.18 | 36237 | 51029
4 | 11:20.30 | 7:56.12 | 51030 | 86741
5 | 19:16.42 | 4:04.65 | 86742 | 105106
6 | 23:21.32 | 4:15.30 | 105107 | 124261
7 | 27:36.62 | 4:15.20 | 124262 | 143406
8 | 31:52.07 | 3:55.33 | 143407 | 161064
9 | 35:47.40 | 4:33.27 | 161065 | 181566
10 | 40:20.67 | 3:20.38 | 181567 | 196604
11 | 43:41.30 | 4:21.32 | 196605 | 216211
12 | 48:02.62 | 4:00.73 | 216212 | 234284
13 | 52:03.60 | 4:01.45 | 234285 | 252404
14 | 56:05.30 | 3:55.45 | 252405 | 270074


Характеристики диапазона извлечения и сообщения об ошибках

Выбранный диапазон

Имя файла Y:\Музыка\Kiss\1988 Chikara\Kiss - Chikara [P30R-20008].wav

Пиковый уровень 100.0 %
Качество диапазона 100.0 %
CRC копии 4CEB9863
Копирование... OK

Ошибок не произошло


AccurateRip: сводка

Трек 1 точное извлечение (доверие 3) [52AC2625]
Трек 2 точное извлечение (доверие 3) [8CEF1C99]
Трек 3 точное извлечение (доверие 3) [A9ECCFF0]
Трек 4 точное извлечение (доверие 3) [903DD5CE]
Трек 5 точное извлечение (доверие 3) [05F483CC]
Трек 6 точное извлечение (доверие 3) [120CFCA2]
Трек 7 точное извлечение (доверие 3) [F8FF8DEE]
Трек 8 точное извлечение (доверие 3) [79E403B0]
Трек 9 точное извлечение (доверие 3) [080E545B]
Трек 10 точное извлечение (доверие 3) [F2A9C3CA]
Трек 11 точное извлечение (доверие 3) [6C75428D]
Трек 12 точное извлечение (доверие 3) [0A5B1010]
Трек 13 точное извлечение (доверие 3) [FF2769AA]
Трек 14 точное извлечение (доверие 3) [F8DAC55D]

Все треки извлечены точно

Конец отчёта


Chikara is a compilation album by the rock band Kiss. It was released on CD only in Japan in support of Kiss' 1988 Japanese tour.
It was limited to 100,000 copies and has long been out of print. One item of note is that this was the only official compact disc release of the extended 12" single version of the song "I Was Made for Lovin' You",
until the 4 track "Psycho Circus" single in 1998.

P30R-20008

_________________
Витасу до Даймонда как Алсу до Руссоса | При переразмещении - спрашивать разрешение!!


Top
 Profile  
 
 
PostPosted: 10 Dec 2010 
5-speed satisfactor
User avatar
Joined: 16 Feb 2009
Posts: 3728
Lоcаtion: New York, USA
Age: 41
Name: Leonid
Ну и этот если можно.

_________________
Death rules! Metal to all who oppose!


Top
 Profile  
 
 
PostPosted: 15 Dec 2010 
Хиппей (support team)
User avatar
Joined: 30 Jul 2007
Posts: 112537
Lоcаtion: Киев (Kyiv, UA)
Age: 45
Name: Andrey
Вечерком перезалью..
Спасибо Димке за рип альбома :thanx: и мне "авось пргдицо" :oops:

_________________


Top
 Profile E-mail  
 
 
PostPosted: 16 Dec 2010 
Хиппей (support team)
User avatar
Joined: 30 Jul 2007
Posts: 112537
Lоcаtion: Киев (Kyiv, UA)
Age: 45
Name: Andrey
MultiUp l Narod

_________________


Top
 Profile E-mail  
 
 
PostPosted: 17 Jan 2011 
5-speed satisfactor
User avatar
Joined: 16 Feb 2009
Posts: 3728
Lоcаtion: New York, USA
Age: 41
Name: Leonid
:thanx:

_________________
Death rules! Metal to all who oppose!


Top
 Profile  
 
Display posts from previous:  Sort by  
Post new topic Reply to topic  [ 5 posts ] 

All times are UTC + 3 hours


Who is online

Users browsing this forum: No registered users and 1 guest


You cannot post new topics in this forum
You cannot reply to topics in this forum
You cannot edit your posts in this forum
You cannot delete your posts in this forum
You cannot post attachments in this forum

Search for:
Яндекс.Метрика
Powered by phpBB © 2000, 2002, 2005, 2007 phpBB Group