\m/ 80's metal \m/

Информационно-аналитический форум "80 см пыли" (In Search We Trust) "У нас никто никуда не спешит"
Me For You - http://me-4u.com
It is currently 16 Sep 2019

All times are UTC + 3 hours

Spoiler
Chat - temporary registration for foreign users (please leave your application here)







Post new topic Reply to topic  [ 7 posts ] 
Author Message
 
PostPosted: 03 Sep 2010 
ыыыы
User avatar
Joined: 17 May 2009
Posts: 952
Lоcаtion: Пушкино, МО
Age: 40
Name: Дмитрий
Image


Жанр: Hard Rock
Происхождение исполнителя: США
Год издания: 1985
Год издания данного носителя: 1985
Страна-производитель носителя: Япония
Аудио кодек: FLAC
Тип рипа: image+.cue
Битрейт аудио: lossless
Продолжительность: 38:55
Рип: Собственный
Лейбл: MERCURY/POLYSTAR
Каталоговый номер: P35R-20002
Матрица: P35R20002 510101 (SANYO)

Треклист:
1. King of the Mountain 04:20
2. Any Way You Slice It 04:03
3. Who Wants To Be Lonely 04:02
4. Trial By Fire 03:26
5. I'm Alive 03:46
6. Love's a Deadly Weapon 03:32
7. Tears Are Falling 03:56
8. Secretly Cruel 03:44
9. Radar for Love 04:01
10. Uh! All Night 04:05

"Куй"
REM GENRE "Hard Rock"
REM DATE 1985
REM DISCID 84091F0A
REM COMMENT "ExactAudioCopy v0.99pb5"
PERFORMER "Kiss"
TITLE "Asylum [P35R-20002]"
FILE "Kiss - Asylum [P35R-20002].flac" WAVE
TRACK 01 AUDIO
TITLE "King Of The Mountain"
PERFORMER "Kiss"
INDEX 01 00:00:00
TRACK 02 AUDIO
TITLE "Any Way You Slice It"
PERFORMER "Kiss"
INDEX 00 04:19:37
INDEX 01 04:19:50
TRACK 03 AUDIO
TITLE "Who Wants To Be Lonely"
PERFORMER "Kiss"
INDEX 00 08:22:62
INDEX 01 08:23:00
TRACK 04 AUDIO
TITLE "Trial By Fire"
PERFORMER "Kiss"
INDEX 00 12:25:22
INDEX 01 12:25:25
TRACK 05 AUDIO
TITLE "I'm Alive"
PERFORMER "Kiss"
INDEX 00 15:50:15
INDEX 01 15:51:45
TRACK 06 AUDIO
TITLE "Love's A Deadly Weapon"
PERFORMER "Kiss"
INDEX 00 19:37:05
INDEX 01 19:37:37
TRACK 07 AUDIO
TITLE "Tears Are Falling"
PERFORMER "Kiss"
INDEX 00 23:09:05
INDEX 01 23:09:25
TRACK 08 AUDIO
TITLE "Secretly Cruel"
PERFORMER "Kiss"
INDEX 00 27:04:65
INDEX 01 27:05:05
TRACK 09 AUDIO
TITLE "Radar For Love"
PERFORMER "Kiss"
INDEX 00 30:48:55
INDEX 01 30:49:22
TRACK 10 AUDIO
TITLE "Uh! All Night"
PERFORMER "Kiss"
INDEX 00 34:50:50
INDEX 01 34:50:52


"Лог"
Exact Audio Copy V0.99 prebeta 5 from 4. May 2009

Отчёт EAC об извлечении, выполненном 3. сентября 2010, 10:32

Kiss / Asylum [P35R-20002]

Дисковод: Optiarc DVD RW AD-7200A Adapter: 0 ID: 0

Режим чтения : Достоверность
Использование точного потока : Да
Отключение кэша аудио : Да
Использование указателей C2 : Нет

Коррекция смещения при чтении : 48
Способность читать области Lead-in и Lead-out : Нет
Заполнение пропущенных сэмплов тишиной : Да
Удаление блоков с тишиной в начале и конце : Нет
При вычислениях CRC использовались нулевые сэмплы : Да
Интерфейс : Встроенный Win32-интерфейс для Win NT/2000

Выходной формат : Пользовательский кодировщик
Выбранный битрейт : 128 kBit/s
Качество : Высокий
Добавление ID3-тэга : Нет
Утилита сжатия : C:\Program Files\Exact Audio Copy\Flac\flac.exe
Дополнительные параметры : -8 -V -T "artist=%a" -T "title=%t" -T "album=%g" -T "date=%y" -T "tracknumber=%n" -T "genre=%m" -T "comment=EAC


TOC извлечённого CD

Трек | Старт | Длительность | Начальный сектор | Конечный сектор
---------------------------------------------------------------------
1 | 0:00.00 | 4:19.50 | 0 | 19474
2 | 4:19.50 | 4:03.25 | 19475 | 37724
3 | 8:23.00 | 4:02.25 | 37725 | 55899
4 | 12:25.25 | 3:26.20 | 55900 | 71369
5 | 15:51.45 | 3:45.67 | 71370 | 88311
6 | 19:37.37 | 3:31.63 | 88312 | 104199
7 | 23:09.25 | 3:55.55 | 104200 | 121879
8 | 27:05.05 | 3:44.17 | 121880 | 138696
9 | 30:49.22 | 4:01.30 | 138697 | 156801
10 | 34:50.52 | 4:04.53 | 156802 | 175154


Характеристики диапазона извлечения и сообщения об ошибках

Выбранный диапазон

Имя файла Y:\Музыка\Kiss\1985 Asylum\Kiss - Asylum [P35R-20002].wav

Пиковый уровень 100.0 %
Качество диапазона 99.9 %
CRC копии 6FCCB161
Копирование... OK

Ошибок не произошло


AccurateRip: сводка

Трек 1 точность не определена (достоверность 1) [506544E0], AccurateRip вернул [69D33A72]
Трек 2 точность не определена (достоверность 1) [342E9C25], AccurateRip вернул [07F4B5D5]
Трек 3 точность не определена (достоверность 1) [6E1D290C], AccurateRip вернул [2D9230A5]
Трек 4 точность не определена (достоверность 1) [4A6906D3], AccurateRip вернул [B802B1A0]
Трек 5 точность не определена (достоверность 1) [7A2EC383], AccurateRip вернул [BB5F486B]
Трек 6 точность не определена (достоверность 1) [DF213CD4], AccurateRip вернул [934BCFB8]
Трек 7 точность не определена (достоверность 1) [C98B3F9B], AccurateRip вернул [956C1B45]
Трек 8 точность не определена (достоверность 1) [716C5CFC], AccurateRip вернул [17BE7465]
Трек 9 точность не определена (достоверность 1) [0632D6EB], AccurateRip вернул [ACA61083]
Трек 10 точность не определена (достоверность 1) [4AAA0E94], AccurateRip вернул [E6EDB6B0]

Ни один трек не прошёл проверки на точность
В вашей базе может быть иной вариант штамповки диска

Конец отчёта


Состав:
Paul Stanley: Rhythm guitar; lead vocals; bass guitar on "Tears Are Falling"
Gene Simmons: Bass guitar; rhythm guitar on "Any Way You Slice It" and "Trial by Fire"; lead vocals
Bruce Kulick: Lead guitar; backing vocals
Eric Carr: Drums; percussion; backing vocals
Jean Beauvoir: Bass guitar on "Uh! All Night"

P35R-20002

_________________
Витасу до Даймонда как Алсу до Руссоса | При переразмещении - спрашивать разрешение!!


Top
 Profile  
 
 
PostPosted: 03 Sep 2010 
"ну типа, хэви-метал это круто и все такое..." ©
User avatar
Joined: 31 Aug 2008
Posts: 902
Lоcаtion: Запорожье
Name: Саня
Спасибо. Любимейший альбом Кисс.


Top
 Profile  
 
 
PostPosted: 03 Sep 2010 
дядя Миша
User avatar
Joined: 17 Oct 2008
Posts: 3182
Lоcаtion: USSR
Age: 57
Name: Khy
Уважаю , и Кисс , и релизёра :true:


Top
 Profile  
 
 
PostPosted: 10 Dec 2010 
5-speed satisfactor
User avatar
Joined: 16 Feb 2009
Posts: 3760
Lоcаtion: New York, USA
Age: 41
Name: Leonid
Нельзя ли перезалить? Благодарю.

_________________
Death rules! Metal to all who oppose!


Top
 Profile  
 
 
PostPosted: 15 Dec 2010 
Хиппей (support team)
User avatar
Joined: 30 Jul 2007
Posts: 114348
Lоcаtion: Киев (Kyiv, UA)
Age: 46
Name: Andrey
Опа. И я альбом не качал...
Пойду на Рутракере гляну...

_________________


Top
 Profile E-mail  
 
 
PostPosted: 15 Dec 2010 
Хиппей (support team)
User avatar
Joined: 30 Jul 2007
Posts: 114348
Lоcаtion: Киев (Kyiv, UA)
Age: 46
Name: Andrey
Ога, есть http://rutracker.org/forum/viewtopic.php?t=3140261

Во время футбола перелью...

_________________


Top
 Profile E-mail  
 
 
PostPosted: 15 Dec 2010 
Хиппей (support team)
User avatar
Joined: 30 Jul 2007
Posts: 114348
Lоcаtion: Киев (Kyiv, UA)
Age: 46
Name: Andrey
MultiUp l Narod

_________________


Top
 Profile E-mail  
 
Display posts from previous:  Sort by  
Post new topic Reply to topic  [ 7 posts ] 

All times are UTC + 3 hours


Who is online

Users browsing this forum: No registered users and 1 guest


You cannot post new topics in this forum
You cannot reply to topics in this forum
You cannot edit your posts in this forum
You cannot delete your posts in this forum
You cannot post attachments in this forum

Search for:
Яндекс.Метрика
Powered by phpBB © 2000, 2002, 2005, 2007 phpBB Group