\m/ 80's metal \m/

Информационно-аналитический форум "80 см пыли" (In Search We Trust) "У нас никто никуда не спешит"
Me For You - http://me-4u.com
It is currently 23 Mar 2019

All times are UTC + 3 hours

Spoiler
Chat - temporary registration for foreign users (please leave your application here)







Post new topic Reply to topic  [ 8 posts ] 
Author Message
 
PostPosted: 25 Aug 2010 
ыыыы
User avatar
Joined: 17 May 2009
Posts: 952
Lоcаtion: Пушкино, МО
Age: 40
Name: Дмитрий
Image


Жанр: Thrash Metal
Происхождение исполнителя: Германия
Год издания: 1992
Год издания данного носителя: 1992
Страна-производитель носителя: Япония
Аудио кодек: FLAC
Тип рипа: image+.cue
Битрейт аудио: lossless
Продолжительность: 38:57
Рип: Собственный
Лейбл: NOISE/VICTOR
Каталоговый номер: VICP-5221
Матрица: VICP-5221-1- 2M 11 V (JVC)

Треклист:
1. Winter Martyrium 05:44
2. Renewal 04:36
3. Reflection 06:16
4. Brainseed 03:17
5. Karmic Wheel 06:06
6. Realitätskontrolle 01:22
7. Zero to None 03:12
8. Europe After the Rain 03:19
9. Depression Unrest 05:07

"Куй"
REM GENRE "Thrash Metal"
REM DATE 1992
REM DISCID 6F092109
REM COMMENT "ExactAudioCopy v0.99pb5"
PERFORMER "Kreator"
TITLE "Renewal [VICP-5221]"
FILE "Kreator - Renewal [VICP-5221].flac" WAVE
TRACK 01 AUDIO
TITLE "Winter Martyrium"
PERFORMER "Kreator"
INDEX 00 00:00:00
INDEX 01 00:00:37
TRACK 02 AUDIO
TITLE "Renewal"
PERFORMER "Kreator"
INDEX 01 05:44:14
TRACK 03 AUDIO
TITLE "Reflection"
PERFORMER "Kreator"
INDEX 01 10:19:54
TRACK 04 AUDIO
TITLE "Brainseed"
PERFORMER "Kreator"
INDEX 01 16:35:24
TRACK 05 AUDIO
TITLE "Karmic Wheel"
PERFORMER "Kreator"
INDEX 01 19:52:24
TRACK 06 AUDIO
TITLE "Realitдtskontrolle"
PERFORMER "Kreator"
INDEX 01 25:58:12
TRACK 07 AUDIO
TITLE "Zero To None"
PERFORMER "Kreator"
INDEX 01 27:20:29
TRACK 08 AUDIO
TITLE "Europe After The Rain"
PERFORMER "Kreator"
INDEX 01 30:31:69
TRACK 09 AUDIO
TITLE "Depression Unrest"
PERFORMER "Kreator"
INDEX 01 33:50:62


"Лог"
Exact Audio Copy V0.99 prebeta 5 from 4. May 2009

Отчёт EAC об извлечении, выполненном 25. августа 2010, 15:04

Kreator / Renewal [VICP-5221]

Дисковод: Optiarc DVD RW AD-7200A Adapter: 1 ID: 0

Режим чтения : Достоверность
Использование точного потока : Да
Отключение кэша аудио : Да
Использование указателей C2 : Нет

Коррекция смещения при чтении : 48
Способность читать области Lead-in и Lead-out : Нет
Заполнение пропущенных сэмплов тишиной : Да
Удаление блоков с тишиной в начале и конце : Нет
При вычислениях CRC использовались нулевые сэмплы : Да
Интерфейс : Встроенный Win32-интерфейс для Win NT/2000

Выходной формат : Пользовательский кодировщик
Выбранный битрейт : 128 kBit/s
Качество : Высокий
Добавление ID3-тэга : Нет
Утилита сжатия : C:\Program Files\Exact Audio Copy\Flac\flac.exe
Дополнительные параметры : -8 -V -T "artist=%a" -T "title=%t" -T "album=%g" -T "date=%y" -T "tracknumber=%n" -T "genre=%m" -T "comment=EAC


TOC извлечённого CD

Трек | Старт | Длительность | Начальный сектор | Конечный сектор
---------------------------------------------------------------------
1 | 0:00.37 | 5:43.52 | 37 | 25813
2 | 5:44.14 | 4:35.40 | 25814 | 46478
3 | 10:19.54 | 6:15.45 | 46479 | 74648
4 | 16:35.24 | 3:17.00 | 74649 | 89423
5 | 19:52.24 | 6:05.63 | 89424 | 116861
6 | 25:58.12 | 1:22.17 | 116862 | 123028
7 | 27:20.29 | 3:11.40 | 123029 | 137393
8 | 30:31.69 | 3:18.68 | 137394 | 152311
9 | 33:50.62 | 5:07.10 | 152312 | 175346


Характеристики диапазона извлечения и сообщения об ошибках

Выбранный диапазон

Имя файла Y:\Музыка\Kreator\1992 Renewal\Kreator - Renewal [VICP-5221].wav

Пиковый уровень 100.0 %
Качество диапазона 100.0 %
CRC копии 29240C2F
Копирование... OK

Ошибок не произошло


AccurateRip: сводка

Трек 1 нет в базе данных
Трек 2 нет в базе данных
Трек 3 нет в базе данных
Трек 4 нет в базе данных
Трек 5 нет в базе данных
Трек 6 нет в базе данных
Трек 7 нет в базе данных
Трек 8 нет в базе данных
Трек 9 нет в базе данных

Ни одного трека нет в базе AccurateRip

Конец отчёта


Состав:
Mille Petrozza: Vocals/Guitar
Frank "Blackfire" Gosdzik: Guitar
Rob Fioretti: Bass
Jurgen "Ventor" Reil: Drums

VICP-5221

_________________
Витасу до Даймонда как Алсу до Руссоса | При переразмещении - спрашивать разрешение!!


Last edited by iezuit on 25 Aug 2010, edited 1 time in total.

Top
 Profile  
 
 
PostPosted: 25 Aug 2010 
Доктор энтомологии
User avatar
Joined: 22 Jan 2009
Posts: 9642
Lоcаtion: Даугавпилс
Age: 44
Name: Алексей
:thanx: Ух, просто праздник какой-то.! Столько всего тут повыкладывали....Жаль времени лосями заниматься нету... :fingal:
Неоднозначный альбомец для меня в свое время был. Оч не нравился раньше.. А сейчас порой тянет переслухать и эмоции положительные имеются :true:


Top
 Profile  
 
 
PostPosted: 25 Aug 2010 
ыыыы
User avatar
Joined: 17 May 2009
Posts: 952
Lоcаtion: Пушкино, МО
Age: 40
Name: Дмитрий
а вот 72-й Скорпы не рипнулись (( опять злая шутка с серией P33X

_________________
Витасу до Даймонда как Алсу до Руссоса | При переразмещении - спрашивать разрешение!!


Top
 Profile  
 
 
PostPosted: 25 Aug 2010 
дядя Миша
User avatar
Joined: 17 Oct 2008
Posts: 3094
Lоcаtion: USSR
Age: 56
Name: Khy
это мой любимый VOIVOD :blum: :blum:


Top
 Profile  
 
 
PostPosted: 25 Aug 2010 
Хиппей (support team)
User avatar
Joined: 30 Jul 2007
Posts: 111111
Lоcаtion: Киев (Kyiv, UA)
Age: 45
Name: Andrey
Самый обожаемый альбом группы :true: :thanx:
Поначалу был в диком ступоре и плевалси, затем понял, что всё равно этой Креатор, только какой же лирический и совершено незлобный :meloman:

_________________


Top
 Profile E-mail  
 
 
PostPosted: 25 Aug 2010 
ыыыы
User avatar
Joined: 17 May 2009
Posts: 952
Lоcаtion: Пушкино, МО
Age: 40
Name: Дмитрий
а я его гонял во время подготовки к экзамену по вышке летом 96-го. БЫл похожий опыт- учил "Полтаву" под Криданс ))Вроде хорошо легло))

_________________
Витасу до Даймонда как Алсу до Руссоса | При переразмещении - спрашивать разрешение!!


Top
 Profile  
 
 
PostPosted: 25 Aug 2010 
труъ антисионист
User avatar
Joined: 01 Aug 2007
Posts: 4541
Lоcаtion: Откуда и большинство из нас
Age: 38
Name: Дядя Вова
Этот альбом Креатора стоит под нумером два! Ну очень мне он нравится, жаль что группа не продолжила развитие в этом направлении!

_________________
Image
Image


Top
 Profile  
 
 
PostPosted: 25 Aug 2010 
Metal Collector
User avatar
Joined: 16 Nov 2008
Posts: 1237
Lоcаtion: Химки
Age: 35
Name: Андрей
Спасибо за свежеподогнанные Креаторы ;) Хоть и не самые любимые альбомы, я как-то больше за классический трэш.


Top
 Profile E-mail  
 
Display posts from previous:  Sort by  
Post new topic Reply to topic  [ 8 posts ] 

All times are UTC + 3 hours


Who is online

Users browsing this forum: No registered users and 1 guest


You cannot post new topics in this forum
You cannot reply to topics in this forum
You cannot edit your posts in this forum
You cannot delete your posts in this forum
You cannot post attachments in this forum

Search for:
Яндекс.Метрика
Powered by phpBB © 2000, 2002, 2005, 2007 phpBB Group