\m/ 80's metal \m/

Информационно-аналитический форум "80 см пыли" (In Search We Trust) "У нас никто никуда не спешит"
Me For You - http://me-4u.com
It is currently 17 Jun 2019

All times are UTC + 3 hours

Spoiler
Chat - temporary registration for foreign users (please leave your application here)







Post new topic Reply to topic  [ 3 posts ] 
Author Message
 
PostPosted: 19 Aug 2010 
ыыыы
User avatar
Joined: 17 May 2009
Posts: 952
Lоcаtion: Пушкино, МО
Age: 40
Name: Дмитрий
Image


Жанр: Thrash Metal
Происхождение исполнителя: Германия
Год издания: 1995
Год издания данного носителя: 1995
Страна-производитель носителя: Япония
Аудио кодек: FLAC
Тип рипа: image+.cue
Битрейт аудио: lossless
Продолжительность: 41:29
Рип: Собственный
Лейбл: G.U.N./VICTOR
Каталоговый номер: VICP-5609
Матрица: VICP-5609-1- 1F 12 V IFPI L232 (JVC)

Треклист:
1. Prevail 03:59
2. Catholic Despot 03:24
3. Progressive Proletarians 03:24
4. Crisis of Disorder 04:17
5. Hate Inside Your Head 03:39
6. Bomb Threat 01:47
7. Men Without God 03:46
8. Lost 03:35
9. Dogmatic Authority 01:27
10. Sculpture of Regret 02:59
11. Celestial Deliverance 03:14
12. State Oppression 01:39
13. Isolation 04:18

"Куй"
REM GENRE "Thrash Metal"
REM DATE 1995
REM DISCID 9E09B90D
REM COMMENT "ExactAudioCopy v0.99pb5"
PERFORMER "Kreator"
TITLE "Cause For Conflict [VICP-5609]"
FILE "Kreator - Cause For Conflict [VICP-5609].flac" WAVE
TRACK 01 AUDIO
TITLE "Prevail"
PERFORMER "Kreator"
INDEX 00 00:00:00
INDEX 01 00:00:37
TRACK 02 AUDIO
TITLE "Catholics Despot"
PERFORMER "Kreator"
INDEX 01 03:59:37
TRACK 03 AUDIO
TITLE "Progressive Proletarians"
PERFORMER "Kreator"
INDEX 01 07:23:05
TRACK 04 AUDIO
TITLE "Crisis Of Disorder"
PERFORMER "Kreator"
INDEX 01 10:47:42
TRACK 05 AUDIO
TITLE "Hate Inside Your Head"
PERFORMER "Kreator"
INDEX 01 15:04:57
TRACK 06 AUDIO
TITLE "Bomb Threat"
PERFORMER "Kreator"
INDEX 00 18:43:58
INDEX 01 18:43:62
TRACK 07 AUDIO
TITLE "Men Without God"
PERFORMER "Kreator"
INDEX 01 20:30:70
TRACK 08 AUDIO
TITLE "Lost"
PERFORMER "Kreator"
INDEX 01 24:16:57
TRACK 09 AUDIO
TITLE "Dogmatic Authority"
PERFORMER "Kreator"
INDEX 00 27:51:71
INDEX 01 27:52:05
TRACK 10 AUDIO
TITLE "Sculpture Of Regret"
PERFORMER "Kreator"
INDEX 00 29:19:28
INDEX 01 29:19:30
TRACK 11 AUDIO
TITLE "Celestial Deliverance"
PERFORMER "Kreator"
INDEX 01 32:18:47
TRACK 12 AUDIO
TITLE "State Oppression"
PERFORMER "Kreator"
INDEX 01 35:32:67
TRACK 13 AUDIO
TITLE "Isolation"
PERFORMER "Kreator"
INDEX 00 37:11:36
INDEX 01 37:11:55


"Лог"
Exact Audio Copy V0.99 prebeta 5 from 4. May 2009

Отчёт EAC об извлечении, выполненном 19. августа 2010, 20:08

Kreator / Cause For Conflict [VICP-5609]

Дисковод: MATSHITADVD-RAM UJ-850S Adapter: 0 ID: 0

Режим чтения : Достоверность
Использование точного потока : Да
Отключение кэша аудио : Да
Использование указателей C2 : Нет

Коррекция смещения при чтении : 102
Способность читать области Lead-in и Lead-out : Нет
Заполнение пропущенных сэмплов тишиной : Да
Удаление блоков с тишиной в начале и конце : Нет
При вычислениях CRC использовались нулевые сэмплы : Да
Интерфейс : Установленный внешний ASPI-интерфейс

Выходной формат : Пользовательский кодировщик
Выбранный битрейт : 128 kBit/s
Качество : Высокий
Добавление ID3-тэга : Нет
Утилита сжатия : C:\Program Files\Exact Audio Copy\Flac\flac.exe
Дополнительные параметры : -6 -V -T "artist=%a" -T "title=%t" -T "album=%g" -T "date=%y" -T "tracknumber=%n" -T "genre=%m" -T "comment=EAC 0.99beta5 / FLAC 1.1.0 q6" %s


TOC извлечённого CD

Трек | Старт | Длительность | Начальный сектор | Конечный сектор
---------------------------------------------------------------------
1 | 0:00.37 | 3:59.00 | 37 | 17961
2 | 3:59.37 | 3:23.43 | 17962 | 33229
3 | 7:23.05 | 3:24.37 | 33230 | 48566
4 | 10:47.42 | 4:17.15 | 48567 | 67856
5 | 15:04.57 | 3:39.05 | 67857 | 84286
6 | 18:43.62 | 1:47.08 | 84287 | 92319
7 | 20:30.70 | 3:45.62 | 92320 | 109256
8 | 24:16.57 | 3:35.23 | 109257 | 125404
9 | 27:52.05 | 1:27.25 | 125405 | 131954
10 | 29:19.30 | 2:59.17 | 131955 | 145396
11 | 32:18.47 | 3:14.20 | 145397 | 159966
12 | 35:32.67 | 1:38.63 | 159967 | 167379
13 | 37:11.55 | 4:17.60 | 167380 | 186714


Характеристики диапазона извлечения и сообщения об ошибках

Выбранный диапазон

Имя файла Y:\Музыка\Kreator\1995 Cause For Conflict\Kreator - Cause For Conflict [VICP-5609].wav

Пиковый уровень 97.8 %
Качество диапазона 100.0 %
CRC копии 6BC8EE49
Копирование... OK

Ошибок не произошло


AccurateRip: сводка

Трек 1 точное извлечение (доверие 1) [159751E0]
Трек 2 точное извлечение (доверие 1) [6E0A7ABC]
Трек 3 точное извлечение (доверие 1) [88CB0E2B]
Трек 4 точное извлечение (доверие 1) [D933BC4C]
Трек 5 точное извлечение (доверие 1) [1BA9000F]
Трек 6 точное извлечение (доверие 1) [C79E75E9]
Трек 7 точное извлечение (доверие 1) [81504410]
Трек 8 точное извлечение (доверие 1) [C809067C]
Трек 9 точное извлечение (доверие 1) [9CF50D94]
Трек 10 точное извлечение (доверие 1) [67BCC093]
Трек 11 точное извлечение (доверие 1) [B65227E3]
Трек 12 точное извлечение (доверие 1) [A75EA02A]
Трек 13 точное извлечение (доверие 1) [FAB8B1C1]

Все треки извлечены точно

Конец отчёта


Состав:
Mille Petrozza: Vocals/Guitar
Frank "Blackfire" Gosdzik: Guitar
Christian Giesler: Bass
Joe Cangelosi: Drums

VICP-5609

_________________
Витасу до Даймонда как Алсу до Руссоса | При переразмещении - спрашивать разрешение!!


Top
 Profile  
 
 
PostPosted: 20 Aug 2010 
Хиппей (support team)
User avatar
Joined: 30 Jul 2007
Posts: 113079
Lоcаtion: Киев (Kyiv, UA)
Age: 46
Name: Andrey
:true:

_________________


Top
 Profile E-mail  
 
 
PostPosted: 20 Aug 2010 
ыыыы
User avatar
Joined: 17 May 2009
Posts: 952
Lоcаtion: Пушкино, МО
Age: 40
Name: Дмитрий
Креатор- наше всё!! :true:

_________________
Витасу до Даймонда как Алсу до Руссоса | При переразмещении - спрашивать разрешение!!


Top
 Profile  
 
Display posts from previous:  Sort by  
Post new topic Reply to topic  [ 3 posts ] 

All times are UTC + 3 hours


Who is online

Users browsing this forum: No registered users and 2 guests


You cannot post new topics in this forum
You cannot reply to topics in this forum
You cannot edit your posts in this forum
You cannot delete your posts in this forum
You cannot post attachments in this forum

Search for:
Яндекс.Метрика
Powered by phpBB © 2000, 2002, 2005, 2007 phpBB Group