\m/ 80's metal \m/

Информационно-аналитический форум "80 см пыли" (In Search We Trust) "У нас никто никуда не спешит"
Me For You - http://me-4u.com
It is currently 19 May 2019

All times are UTC + 3 hours

Spoiler
Chat - temporary registration for foreign users (please leave your application here)







Post new topic Reply to topic  [ 5 posts ] 
Author Message
 
PostPosted: 15 Aug 2010 
ыыыы
User avatar
Joined: 17 May 2009
Posts: 952
Lоcаtion: Пушкино, МО
Age: 40
Name: Дмитрий
Image


Жанр: Thrash Metal
Происхождение исполнителя: Германия
Год издания: 1996
Год издания данного носителя: 1996
Страна-производитель носителя: Япония
Аудио кодек: FLAC
Тип рипа: image+.cue
Битрейт аудио: lossless
Продолжительность: 67:36
Рип: Собственный
Лейбл: NOISE/VICTOR
Каталоговый номер: VICP-5690
Матрица: VICP-5690-1- 1F 12 V IFPI L232 (JVC)

Треклист:
1. Suicide In Swamps 05:10
2. Renewal 04:25
3. Extreme Aggressions 04:42
4. Brainseed 03:07
5. Terror Zone 05:52
6. Ripping Corpse (live) 04:19
7. Tormentor (live) 02:32
8. Some Pain Will Last 05:38
9. Toxic Trace 05:08
10. People Of The Lie 03:13
11. Depression Unrest 03:56
12. Coma Of Souls 04:19
13. Europe After The Rain 03:13
14. Limits Of Liberty 01:39
15. Terrible Certainty 04:17
16. Karmic Wheel 06:06

"Куй"
REM GENRE "Thrash Metal"
REM DATE 1996
REM DISCID ED0FD810
REM COMMENT "ExactAudioCopy v0.99pb5"
PERFORMER "Kreator"
TITLE "Scenarios Of Violence [VICP-5690]"
FILE "Kreator - Scenarios Of Violence [VICP-5690].flac" WAVE
TRACK 01 AUDIO
TITLE "Suicide In The Swamps"
PERFORMER "Kreator"
INDEX 00 00:00:00
INDEX 01 00:00:37
TRACK 02 AUDIO
TITLE "Renewal"
PERFORMER "Kreator"
INDEX 01 05:10:05
TRACK 03 AUDIO
TITLE "Extreme Aggressions"
PERFORMER "Kreator"
INDEX 00 09:34:41
INDEX 01 09:34:55
TRACK 04 AUDIO
TITLE "Brainseed"
PERFORMER "Kreator"
INDEX 01 14:16:30
TRACK 05 AUDIO
TITLE "Terror Zone"
PERFORMER "Kreator"
INDEX 00 17:23:03
INDEX 01 17:23:07
TRACK 06 AUDIO
TITLE "Rippin Corpse"
PERFORMER "Kreator"
INDEX 00 23:15:21
INDEX 01 23:15:25
TRACK 07 AUDIO
TITLE "Tormentor"
PERFORMER "Kreator"
INDEX 01 27:33:70
TRACK 08 AUDIO
TITLE "Some Pain Will Last"
PERFORMER "Kreator"
INDEX 01 30:06:27
TRACK 09 AUDIO
TITLE "Toxic Trace"
PERFORMER "Kreator"
INDEX 00 35:44:08
INDEX 01 35:44:27
TRACK 10 AUDIO
TITLE "People of The Lie"
PERFORMER "Kreator"
INDEX 00 40:52:26
INDEX 01 40:52:30
TRACK 11 AUDIO
TITLE "Depression Unrest"
PERFORMER "Kreator"
INDEX 01 44:05:37
TRACK 12 AUDIO
TITLE "Coma Of Souls"
PERFORMER "Kreator"
INDEX 00 48:01:21
INDEX 01 48:01:52
TRACK 13 AUDIO
TITLE "Europe After The Rain"
PERFORMER "Kreator"
INDEX 00 52:20:33
INDEX 01 52:20:40
TRACK 14 AUDIO
TITLE "Limits Of Liberty"
PERFORMER "Kreator"
INDEX 00 55:33:13
INDEX 01 55:33:65
TRACK 15 AUDIO
TITLE "Terrible Certainty"
PERFORMER "Kreator"
INDEX 00 57:12:36
INDEX 01 57:12:60
TRACK 16 AUDIO
TITLE "Karmic Wheel"
PERFORMER "Kreator"
INDEX 01 61:30:00


"Лог"
Exact Audio Copy V0.99 prebeta 5 from 4. May 2009

Отчёт EAC об извлечении, выполненном 14. августа 2010, 23:10

Kreator / Scenarios Of Violence [VICP-5690]

Дисковод: MATSHITADVD-RAM UJ-850S Adapter: 0 ID: 0

Режим чтения : Достоверность
Использование точного потока : Да
Отключение кэша аудио : Да
Использование указателей C2 : Нет

Коррекция смещения при чтении : 102
Способность читать области Lead-in и Lead-out : Нет
Заполнение пропущенных сэмплов тишиной : Да
Удаление блоков с тишиной в начале и конце : Нет
При вычислениях CRC использовались нулевые сэмплы : Да
Интерфейс : Установленный внешний ASPI-интерфейс

Выходной формат : Пользовательский кодировщик
Выбранный битрейт : 128 kBit/s
Качество : Высокий
Добавление ID3-тэга : Нет
Утилита сжатия : C:\Program Files\Exact Audio Copy\Flac\flac.exe
Дополнительные параметры : -6 -V -T "artist=%a" -T "title=%t" -T "album=%g" -T "date=%y" -T "tracknumber=%n" -T "genre=%m" -T "comment=EAC 0.99beta5 / FLAC 1.1.0 q6" %s


TOC извлечённого CD

Трек | Старт | Длительность | Начальный сектор | Конечный сектор
---------------------------------------------------------------------
1 | 0:00.37 | 5:09.43 | 37 | 23254
2 | 5:10.05 | 4:24.50 | 23255 | 43104
3 | 9:34.55 | 4:41.50 | 43105 | 64229
4 | 14:16.30 | 3:06.52 | 64230 | 78231
5 | 17:23.07 | 5:52.18 | 78232 | 104649
6 | 23:15.25 | 4:18.45 | 104650 | 124044
7 | 27:33.70 | 2:32.32 | 124045 | 135476
8 | 30:06.27 | 5:38.00 | 135477 | 160826
9 | 35:44.27 | 5:08.03 | 160827 | 183929
10 | 40:52.30 | 3:13.07 | 183930 | 198411
11 | 44:05.37 | 3:56.15 | 198412 | 216126
12 | 48:01.52 | 4:18.63 | 216127 | 235539
13 | 52:20.40 | 3:13.25 | 235540 | 250039
14 | 55:33.65 | 1:38.70 | 250040 | 257459
15 | 57:12.60 | 4:17.15 | 257460 | 276749
16 | 61:30.00 | 6:06.10 | 276750 | 304209


Характеристики диапазона извлечения и сообщения об ошибках

Выбранный диапазон

Имя файла Y:\Музыка\Kreator\1996 Scenarios Of Violence\Kreator - Scenarios Of Violence [VICP-5690].wav

Пиковый уровень 98.0 %
Качество диапазона 100.0 %
CRC копии BF05A270
Копирование... OK

Ошибок не произошло


AccurateRip: сводка

Трек 1 нет в базе данных
Трек 2 нет в базе данных
Трек 3 нет в базе данных
Трек 4 нет в базе данных
Трек 5 нет в базе данных
Трек 6 нет в базе данных
Трек 7 нет в базе данных
Трек 8 нет в базе данных
Трек 9 нет в базе данных
Трек 10 нет в базе данных
Трек 11 нет в базе данных
Трек 12 нет в базе данных
Трек 13 нет в базе данных
Трек 14 нет в базе данных
Трек 15 нет в базе данных
Трек 16 нет в базе данных

Ни одного трека нет в базе AccurateRip

Конец отчёта


VICP-5690

_________________
Витасу до Даймонда как Алсу до Руссоса | При переразмещении - спрашивать разрешение!!


Top
 Profile  
 
 
PostPosted: 15 Aug 2010 
Metal Collector
User avatar
Joined: 16 Nov 2008
Posts: 1242
Lоcаtion: Химки
Age: 36
Name: Андрей
Пасиб, заберу :) Походу опять придётся разные версии на предмет отличий по песням сравнивать.


Top
 Profile E-mail  
 
 
PostPosted: 15 Aug 2010 
5cm
User avatar
Joined: 01 Mar 2009
Posts: 61
Name: Сергей
СПАСИБО!


Top
 Profile  
 
 
PostPosted: 15 Aug 2010 
Пионэръ
Joined: 08 Mar 2010
Posts: 36
Lоcаtion: Россия
Age: 39
Name: Иван
Спасибо дружище-металище! :true:


Top
 Profile E-mail  
 
 
PostPosted: 16 Aug 2010 
Прокъмитолист
User avatar
Joined: 12 Aug 2007
Posts: 6552
Lоcаtion: Санктъ-Петербуркъ
Age: 51
Name: Олекъ
а возьму-ка я пожалуй такого япончика. спасибо, Дим! :thanx: :drink: :true:

_________________
прокъметол - это музыко, от которово есть прок (ы)


Top
 Profile  
 
Display posts from previous:  Sort by  
Post new topic Reply to topic  [ 5 posts ] 

All times are UTC + 3 hours


Who is online

Users browsing this forum: No registered users and 1 guest


You cannot post new topics in this forum
You cannot reply to topics in this forum
You cannot edit your posts in this forum
You cannot delete your posts in this forum
You cannot post attachments in this forum

Search for:
Яндекс.Метрика
Powered by phpBB © 2000, 2002, 2005, 2007 phpBB Group