\m/ 80's metal \m/

Информационно-аналитический форум "80 см пыли" (In Search We Trust) "У нас никто никуда не спешит"
Me For You - http://me-4u.com
It is currently 22 Sep 2019

All times are UTC + 3 hours

Spoiler
Chat - temporary registration for foreign users (please leave your application here)







Post new topic Reply to topic  [ 3 posts ] 
Author Message
 
PostPosted: 24 Jul 2010 
Генеральный thrasher
User avatar
Joined: 03 Oct 2008
Posts: 3733
Lоcаtion: Ханты-Мансийский АО
Age: 44
Name: Сергей
Image
Year:2008
Style:Power Metal
Country:Czech Republic
Audio:Flac+Cue+Log
Size:577Mb
Label:Tommu Records

Line-Up:
Ladislav Krizek - Vocals
Jaroslav Barton - Guitars
Daniel Krob - Guitar
Karel Adam - Bass & Keyboard
Robert Vondrovic - Drums

Tracklist:
Anděl na útěku [1990]
01. Kreyson
02. Skalp
03. Čarovná noc
04. Upíří láska
05. Vzdálená
06. Anděl na útěku
07. Svědomí
08. Ztracená archa
09. Nejde vrátit čas
10. Fade out
Křižáci [1992]
11. Cesta ke svatému hrobu
12. Křižáci
13. Zákonem vládnou
14. Není marné žít
15. Trápení
16. Zůstaň na kolenou
17. Dar odpuštění
18. Pláč bezmocnejch
19. Dej nám sílu žít
20. V zajetí

Ifolder1
Ifolder2

Cue
REM GENRE Rock
REM DATE 2008
REM DISCID 0212BB14
REM COMMENT "ExactAudioCopy v0.99pb5"
PERFORMER "KREYSON"
TITLE "Andel na uteku + Krizaci"
FILE "KREYSON - 2008 - Andel na uteku + Krizaci.flac" WAVE
TRACK 01 AUDIO
TITLE "Kreyson"
PERFORMER "KREYSON"
INDEX 01 00:00:00
TRACK 02 AUDIO
TITLE "Skalp"
PERFORMER "KREYSON"
INDEX 01 04:08:58
TRACK 03 AUDIO
TITLE "Carovna noc"
PERFORMER "KREYSON"
INDEX 01 07:18:13
TRACK 04 AUDIO
TITLE "Upiri laska"
PERFORMER "KREYSON"
INDEX 01 11:45:03
TRACK 05 AUDIO
TITLE "Vzdalena"
PERFORMER "KREYSON"
INDEX 01 15:59:58
TRACK 06 AUDIO
TITLE "Andel na uteku"
PERFORMER "KREYSON"
INDEX 01 20:21:17
TRACK 07 AUDIO
TITLE "Svedomi"
PERFORMER "KREYSON"
INDEX 01 23:28:14
TRACK 08 AUDIO
TITLE "Ztracena archa"
PERFORMER "KREYSON"
INDEX 01 27:30:72
TRACK 09 AUDIO
TITLE "Nejde vratit cas"
PERFORMER "KREYSON"
INDEX 01 31:02:52
TRACK 10 AUDIO
TITLE "Fade out"
PERFORMER "KREYSON"
INDEX 01 36:52:74
TRACK 11 AUDIO
TITLE "Cesta ke Svatemu hrobu"
PERFORMER "KREYSON"
INDEX 00 40:07:05
INDEX 01 40:08:50
TRACK 12 AUDIO
TITLE "Krizaci"
PERFORMER "KREYSON"
INDEX 01 42:56:27
TRACK 13 AUDIO
TITLE "Zakonem vladnou"
PERFORMER "KREYSON"
INDEX 01 48:12:15
TRACK 14 AUDIO
TITLE "Neni marne zit"
PERFORMER "KREYSON"
INDEX 01 51:52:62
TRACK 15 AUDIO
TITLE "Trapeni"
PERFORMER "KREYSON"
INDEX 01 56:09:41
TRACK 16 AUDIO
TITLE "Zustan na kolenou"
PERFORMER "KREYSON"
INDEX 01 60:13:16
TRACK 17 AUDIO
TITLE "Dar odpusteni"
PERFORMER "KREYSON"
INDEX 01 63:57:27
TRACK 18 AUDIO
TITLE "Plac bezmocnejch"
PERFORMER "KREYSON"
INDEX 01 67:20:06
TRACK 19 AUDIO
TITLE "Dej nam silu zit"
PERFORMER "KREYSON"
INDEX 01 72:15:15
TRACK 20 AUDIO
TITLE "V zajeti"
PERFORMER "KREYSON"
INDEX 01 75:39:33


Log
Exact Audio Copy V0.99 prebeta 5 from 4. May 2009

Zбznam extrakce EAC z 28. Duben 2010, 23:41

KREYSON / Andel na uteku + Krizaci

Pouћitб mechanika : Optiarc DVD RW AD-7203S Adapter: 1 ID: 0

Reћim иtenн : Bezpeиnэ
Pouћнt accurate stream : Ano
Obejнt zvukovou vyr. pamмќ : Ano
Pouћнt C2 ukazatele : Ne

Korekce vychэlenн иtenн : 48
Инst lead-in a lead-out : Ne
Nahradit chybмjнcн vzorky tichem : Ano
Smazat ticho na zaибtku a na konci stop : Ne
Pшi vэpoиtu CRC pouћity nulovй vzorky : Ne
Pouћitй rozhranн : Integrovanй Win32 rozhranн pro NT/2k/XP

Pouћitэ vэstupnн formбt : Uћivatelsky definovanэ encoder
Zvolenэ bitrate : 1024 kBit/s
Kvalita : Vysokб
Pшidat ID3 tag : Ano
Komprimaиnн program pro pшнkazovэ шбdek : C:\Program Files (x86)\Exact Audio Copy\FLAC\FLAC.EXE
Dodateиnй parametry : -6 -V -T "ARTIST=%a" -T "TITLE=%t" -T "ALBUM=%g" -T "DATE=%y" -T "TRACKNUMBER=%n" -T "GENRE=%m" -T "COMMENT=%e" %s -o %d


TOC extrahovanйho CD

Stopa | Poибtek | Dйlka | Poибteиnн sektor | Koncovэ sektor
-----------------------------------------------------------------
1 | 0:00.00 | 4:08.58 | 0 | 18657
2 | 4:08.58 | 3:09.30 | 18658 | 32862
3 | 7:18.13 | 4:26.65 | 32863 | 52877
4 | 11:45.03 | 4:14.55 | 52878 | 71982
5 | 15:59.58 | 4:21.34 | 71983 | 91591
6 | 20:21.17 | 3:06.72 | 91592 | 105613
7 | 23:28.14 | 4:02.58 | 105614 | 123821
8 | 27:30.72 | 3:31.55 | 123822 | 139701
9 | 31:02.52 | 5:50.22 | 139702 | 165973
10 | 36:52.74 | 3:15.51 | 165974 | 180649
11 | 40:08.50 | 2:47.52 | 180650 | 193226
12 | 42:56.27 | 5:15.63 | 193227 | 216914
13 | 48:12.15 | 3:40.47 | 216915 | 233461
14 | 51:52.62 | 4:16.54 | 233462 | 252715
15 | 56:09.41 | 4:03.50 | 252716 | 270990
16 | 60:13.16 | 3:44.11 | 270991 | 287801
17 | 63:57.27 | 3:22.54 | 287802 | 303005
18 | 67:20.06 | 4:55.09 | 303006 | 325139
19 | 72:15.15 | 3:24.18 | 325140 | 340457
20 | 75:39.33 | 4:16.41 | 340458 | 359698


Rozsah - stav a chyby

Vybranэ rozsah

nбzev souboru D:\BEZDRATOVA HUDBA(FLAC,APE,WAV,cue)\KREYSON - 2008 - Andel na uteku - Krizaci(CUE+FLAC)(ROCK)\KREYSON - 2008 - Andel na uteku + Krizaci.wav

љpiиkovб ъrovмт 98.8 %
kvalita rozsahu 99.9 %
CRC kopie 9823583F
kopie OK

Nedoљlo k ћбdnэm chybбm


AccurateRip

Stopa 1 nebylo moћnй ovмшit jako pшesnй (spolehlivost 1) [3BD7D811], AccurateRip [F84A5077]
Stopa 2 nebylo moћnй ovмшit jako pшesnй (spolehlivost 1) [74861DF4], AccurateRip [2F9EA53B]
Stopa 3 nebylo moћnй ovмшit jako pшesnй (spolehlivost 1) [7F154A72], AccurateRip [453D77B7]
Stopa 4 nebylo moћnй ovмшit jako pшesnй (spolehlivost 1) [3B89B9DA], AccurateRip [321C53AE]
Stopa 5 nebylo moћnй ovмшit jako pшesnй (spolehlivost 1) [97950783], AccurateRip [5247A555]
Stopa 6 nebylo moћnй ovмшit jako pшesnй (spolehlivost 1) [499F2BBE], AccurateRip [B977B07E]
Stopa 7 nebylo moћnй ovмшit jako pшesnй (spolehlivost 1) [CB68F2EC], AccurateRip [44C4E9D2]
Stopa 8 nebylo moћnй ovмшit jako pшesnй (spolehlivost 1) [F7B70555], AccurateRip [FFDEA129]
Stopa 9 nebylo moћnй ovмшit jako pшesnй (spolehlivost 1) [9DB07555], AccurateRip [84CB559F]
Stopa 10 nebylo moћnй ovмшit jako pшesnй (spolehlivost 1) [7994DF42], AccurateRip [C059CBFA]
Stopa 11 nebylo moћnй ovмшit jako pшesnй (spolehlivost 1) [99E8BBE4], AccurateRip [35E3170C]
Stopa 12 nebylo moћnй ovмшit jako pшesnй (spolehlivost 1) [8F9284CB], AccurateRip [475E2D4B]
Stopa 13 nebylo moћnй ovмшit jako pшesnй (spolehlivost 1) [F007FBBD], AccurateRip [2DBE0943]
Stopa 14 nebylo moћnй ovмшit jako pшesnй (spolehlivost 1) [6436F893], AccurateRip [95B7AEF3]
Stopa 15 nebylo moћnй ovмшit jako pшesnй (spolehlivost 1) [EF23D648], AccurateRip [04754F3A]
Stopa 16 nebylo moћnй ovмшit jako pшesnй (spolehlivost 1) [E92BACC8], AccurateRip [E106A4A6]
Stopa 17 nebylo moћnй ovмшit jako pшesnй (spolehlivost 1) [AD2E83DF], AccurateRip [C172D111]
Stopa 18 nebylo moћnй ovмшit jako pшesnй (spolehlivost 1) [9356CD71], AccurateRip [32A51409]
Stopa 19 nebylo moћnй ovмшit jako pшesnй (spolehlivost 1) [1FD7528F], AccurateRip [DD683FDF]
Stopa 20 nebylo moћnй ovмшit jako pшesnй (spolehlivost 1) [60D3BF2C], AccurateRip [449495DA]

Ћбdnй stopy nemohly bэt ovмшeny jako pшesnй
Mщћete mнt jinэ vэlisek neћ jsou ty kterй jsou jiћ v databбzi

Konec stavovйho hlбљenн


Top
 Profile  
 
 
PostPosted: 24 Jul 2010 
Хиппей (support team)
User avatar
Joined: 30 Jul 2007
Posts: 114418
Lоcаtion: Киев (Kyiv, UA)
Age: 46
Name: Andrey
:thanx:

_________________


Top
 Profile E-mail  
 
 
PostPosted: 25 Jul 2010 
Работнечег
User avatar
Joined: 28 Aug 2007
Posts: 5995
Lоcаtion: г. Москва
Age: 30
Name: Дима
Спасибо Серёг! :thanx:


Top
 Profile E-mail  
 
Display posts from previous:  Sort by  
Post new topic Reply to topic  [ 3 posts ] 

All times are UTC + 3 hours


Who is online

Users browsing this forum: No registered users and 1 guest


You cannot post new topics in this forum
You cannot reply to topics in this forum
You cannot edit your posts in this forum
You cannot delete your posts in this forum
You cannot post attachments in this forum

Search for:
Яндекс.Метрика
cron
Powered by phpBB © 2000, 2002, 2005, 2007 phpBB Group