\m/ 80's metal \m/

Информационно-аналитический форум "80 см пыли" (In Search We Trust) "У нас никто никуда не спешит"
Me For You - http://me-4u.com
It is currently 13 Dec 2019

All times are UTC + 3 hours

Spoiler
Chat - temporary registration for foreign users (please leave your application here)







Post new topic Reply to topic  [ 9 posts ] 
Author Message
 
PostPosted: 28 May 2010 
Я набрал 1000 сообщений!
User avatar
Joined: 02 Feb 2009
Posts: 1000
Lоcаtion: из Тулы
Age: 45
Name: Максим
Kreyson 1990 - Angel on the Run

Image

Год: 1990
Стиль: Power metal
Страна: Czech Republic (Prague)
Формат: Flac ( image + cue ) , log , covers
Размер: 320 mb (3%)

Состав:
Ladislav Krizek - Vocals
Jaroslav Barton - Guitars
Daniel Krob - Guitar
Karel Adam - Bass & Keyboard
Robert Vondrovic - Drums

Трэклист:
1. Kreyson 04:05
2. Skalp 03:11
3. Deep in the Night (Carovna noc) 04:29
4. No Blue Skies (Upiri laska) 04:15
5. Faraway (Vzdalena) 04:22
6. Angel on the Run (Andel na uteku) 03:07
7. Dreamin (Svedomi) 03:59
8. Golden Ark (Ztracena archa) 03:34
9. I Need You (Nejde vratit cas) 05:48
10. Fade Out 03:14

Total playing time 40:04

http://www.megaupload.com/?d=XHEGYUJT

Данный релиз отличается от тех что на MMT и на трэкерах тем что рипы сделаны мной с оригинальных дисков из моей коллекции.

_________________
КМА


Top
 Profile  
 
 
PostPosted: 28 May 2010 
Хиппей (support team)
User avatar
Joined: 30 Jul 2007
Posts: 116105
Lоcаtion: Киев (Kyiv, UA)
Age: 46
Name: Andrey
Спасибо, я его тогда отдельной темой оформлю. Взяв инфу с Дарксаги, ок?

_________________


Top
 Profile E-mail  
 
 
PostPosted: 29 May 2010 
Я набрал 1000 сообщений!
User avatar
Joined: 02 Feb 2009
Posts: 1000
Lоcаtion: из Тулы
Age: 45
Name: Максим
Scatterbrain wrote:
Спасибо, я его тогда отдельной темой оформлю. Взяв инфу с Дарксаги, ок?

конечно

_________________
КМА


Top
 Profile  
 
 
PostPosted: 30 May 2010 
Работнечег
User avatar
Joined: 28 Aug 2007
Posts: 6086
Lоcаtion: г. Москва
Age: 30
Name: Дима
Спасибо, отличная группа!


Top
 Profile E-mail  
 
 
PostPosted: 31 May 2010 
Power Metal Maniac
User avatar
Joined: 09 Aug 2008
Posts: 6997
Lоcаtion: Москва
Age: 41
Name: Егор
:thanx:

_________________
Long Live Metal!


Top
 Profile  
 
 
PostPosted: 31 May 2010 
metallpaparazzy
User avatar
Joined: 20 Dec 2009
Posts: 674
Lоcаtion: Днепропетровск
Age: 44
Name: Геннадий
:thanx:
Слушаю... йоу, отличная банда :true:


Top
 Profile E-mail  
 
 
PostPosted: 25 Feb 2012 
Генеральный thrasher
User avatar
Joined: 03 Oct 2008
Posts: 3743
Lоcаtion: Ханты-Мансийский АО
Age: 44
Name: Сергей
И этот перезалит.Также рип с личного диска.Flac+Cue+Log+Full Scans

Angel On The Run

Cue
REM GENRE "Heavy Metal"
REM DATE 1991
REM DISCID 7209630A
REM COMMENT "ExactAudioCopy v0.99pb5"
PERFORMER "KREYSON"
TITLE "ANGEL ON THE RUN"
FILE "KREYSON - ANGEL ON THE RUN.flac" WAVE
TRACK 01 AUDIO
TITLE "Kreyson"
PERFORMER "KREYSON"
INDEX 00 00:00:00
INDEX 01 00:00:32
TRACK 02 AUDIO
TITLE "Skalp"
PERFORMER "KREYSON"
INDEX 00 04:06:32
INDEX 01 04:06:40
TRACK 03 AUDIO
TITLE "Deep In The Night"
PERFORMER "KREYSON"
INDEX 00 07:17:32
INDEX 01 07:17:62
TRACK 04 AUDIO
TITLE "No Blue Skies"
PERFORMER "KREYSON"
INDEX 00 11:46:15
INDEX 01 11:46:27
TRACK 05 AUDIO
TITLE "Faraway"
PERFORMER "KREYSON"
INDEX 01 15:59:32
TRACK 06 AUDIO
TITLE "Angel On The Run"
PERFORMER "KREYSON"
INDEX 00 20:20:30
INDEX 01 20:21:25
TRACK 07 AUDIO
TITLE "Dreamin'"
PERFORMER "KREYSON"
INDEX 00 23:27:70
INDEX 01 23:28:25
TRACK 08 AUDIO
TITLE "Golden Ark"
PERFORMER "KREYSON"
INDEX 00 27:27:55
INDEX 01 27:28:25
TRACK 09 AUDIO
TITLE "I Need You"
PERFORMER "KREYSON"
INDEX 00 31:01:72
INDEX 01 31:02:25
TRACK 10 AUDIO
TITLE "Fade Out"
PERFORMER "KREYSON"
INDEX 01 36:49:30


Log
Exact Audio Copy V0.99 prebeta 5 from 4. May 2009

Отчёт EAC об извлечении, выполненном 22. февраля 2012, 9:08

KREYSON / ANGEL ON THE RUN

Дисковод: TSSTcorpCDDVDW SH-S202N Adapter: 0 ID: 1

Режим чтения : Достоверность
Использование точного потока : Да
Отключение кэша аудио : Да
Использование указателей C2 : Нет

Коррекция смещения при чтении : 6
Способность читать области Lead-in и Lead-out : Нет
Заполнение пропущенных сэмплов тишиной : Да
Удаление блоков с тишиной в начале и конце : Нет
При вычислениях CRC использовались нулевые сэмплы : Да
Интерфейс : Встроенный Win32-интерфейс для Win NT/2000

Выходной формат : Пользовательский кодировщик
Выбранный битрейт : 768 kBit/s
Качество : Высокий
Добавление ID3-тэга : Нет
Утилита сжатия : C:\Program Files\Exact Audio Copy\FLAC\FLAC.EXE
Дополнительные параметры : -6 -V -T "ARTIST=%a" -T "TITLE=%t" -T "ALBUM=%g" -T "DATE=%y" -T "TRACKNUMBER=%n" -T "GENRE=%m" -T "COMMENT=%e" %s -o %d


TOC извлечённого CD

Трек | Старт | Длительность | Начальный сектор | Конечный сектор
---------------------------------------------------------------------
1 | 0:00.32 | 4:06.08 | 32 | 18489
2 | 4:06.40 | 3:11.22 | 18490 | 32836
3 | 7:17.62 | 4:28.40 | 32837 | 52976
4 | 11:46.27 | 4:13.05 | 52977 | 71956
5 | 15:59.32 | 4:21.68 | 71957 | 91599
6 | 20:21.25 | 3:07.00 | 91600 | 105624
7 | 23:28.25 | 4:00.00 | 105625 | 123624
8 | 27:28.25 | 3:34.00 | 123625 | 139674
9 | 31:02.25 | 5:47.05 | 139675 | 165704
10 | 36:49.30 | 3:13.65 | 165705 | 180244


Характеристики диапазона извлечения и сообщения об ошибках

Выбранный диапазон

Имя файла E:\Лоси\K\KREYSON - ANGEL ON THE RUN.wav

Пиковый уровень 100.0 %
Качество диапазона 100.0 %
CRC копии 5E2E91AC
Копирование... OK

Ошибок не произошло


AccurateRip: сводка

Трек 1 нет в базе данных
Трек 2 нет в базе данных
Трек 3 нет в базе данных
Трек 4 нет в базе данных
Трек 5 нет в базе данных
Трек 6 нет в базе данных
Трек 7 нет в базе данных
Трек 8 нет в базе данных
Трек 9 нет в базе данных
Трек 10 нет в базе данных

Ни одного трека нет в базе AccurateRip

Конец отчёта


Top
 Profile  
 
 
PostPosted: 16 Mar 2012 
Я набрал 1000 сообщений!
User avatar
Joined: 02 Feb 2009
Posts: 1000
Lоcаtion: из Тулы
Age: 45
Name: Максим
во
как раз про этот диск и говорил , там в другой теме

_________________
КМА


Top
 Profile  
 
 
PostPosted: 17 Mar 2012 
Хиппей (support team)
User avatar
Joined: 30 Jul 2007
Posts: 116105
Lоcаtion: Киев (Kyiv, UA)
Age: 46
Name: Andrey
:thanx:

_________________


Top
 Profile E-mail  
 
Display posts from previous:  Sort by  
Post new topic Reply to topic  [ 9 posts ] 

All times are UTC + 3 hours


Who is online

Users browsing this forum: No registered users and 1 guest


You cannot post new topics in this forum
You cannot reply to topics in this forum
You cannot edit your posts in this forum
You cannot delete your posts in this forum
You cannot post attachments in this forum

Search for:
Яндекс.Метрика
Powered by phpBB © 2000, 2002, 2005, 2007 phpBB Group