\m/ 80's metal \m/

Информационно-аналитический форум "80 см пыли" (In Search We Trust) "У нас никто никуда не спешит"
Me For You - http://me-4u.com
It is currently 19 Mar 2019

All times are UTC + 3 hours

Spoiler
Chat - temporary registration for foreign users (please leave your application here)







Post new topic Reply to topic  [ 2 posts ] 
Author Message
 
PostPosted: 06 May 2010 
ыыыы
User avatar
Joined: 17 May 2009
Posts: 952
Lоcаtion: Пушкино, МО
Age: 40
Name: Дмитрий
Image


Жанр: Heavy Metal
Происхождение исполнителя: Дания
Год издания: 1995
Год издания данного носителя: 1995
Страна-производитель носителя: Япония
Аудио кодек: FLAC
Тип рипа: image+.cue
Битрейт аудио: lossless
Продолжительность: 47:20
Рип: Собственный
Лейбл: METAL BLADE/NIPPON PHONOGRAM
Каталоговый номер: PHCR-1367
Матрица: PHCR-1367 1 (SONY)

Треклист:
1. From The Other Side 03:52
2. Killer 04:17
3. The Poltergeist 04:30
4. Dreams 04:39
5. Moonlight 04:33
6. Six Feet Under 04:02
7. The Spider's Lullabye 03:40
8. Eastmann's Cure 04:32
9. Room 17 08:18
10. To The Morgue 04:58

"Куй"
REM GENRE "Heavy Metal"
REM DATE 1995
REM DISCID 740B180A
REM COMMENT "ExactAudioCopy v0.99pb5"
PERFORMER "King Diamond"
TITLE "The Spider's Lullabye [PHCR-1367]"
FILE "King Diamond - The Spider's Lullabye [PHCR-1367].flac" WAVE
TRACK 01 AUDIO
TITLE "From The Other Side"
PERFORMER "King Diamond"
INDEX 01 00:00:00
TRACK 02 AUDIO
TITLE "Killer"
PERFORMER "King Diamond"
INDEX 00 03:49:22
INDEX 01 03:51:45
TRACK 03 AUDIO
TITLE "The Poltergeist"
PERFORMER "King Diamond"
INDEX 00 08:07:10
INDEX 01 08:08:67
TRACK 04 AUDIO
TITLE "Dreams"
PERFORMER "King Diamond"
INDEX 00 12:36:70
INDEX 01 12:38:52
TRACK 05 AUDIO
TITLE "Moonlight"
PERFORMER "King Diamond"
INDEX 00 17:16:02
INDEX 01 17:17:62
TRACK 06 AUDIO
TITLE "Six Feet Under"
PERFORMER "King Diamond"
INDEX 00 21:48:40
INDEX 01 21:50:25
TRACK 07 AUDIO
TITLE "The Spider's Lullabye"
PERFORMER "King Diamond"
INDEX 00 25:51:70
INDEX 01 25:52:30
TRACK 08 AUDIO
TITLE "Eastmann's Cure"
PERFORMER "King Diamond"
INDEX 01 29:32:00
TRACK 09 AUDIO
TITLE "Room 17"
PERFORMER "King Diamond"
INDEX 00 34:02:67
INDEX 01 34:04:32
TRACK 10 AUDIO
TITLE "To The Morgue"
PERFORMER "King Diamond"
INDEX 01 42:21:72


"Лог"
Exact Audio Copy V0.99 prebeta 5 from 4. May 2009

EAC extraction logfile from 6. May 2010, 12:49

King Diamond / The Spider's Lullabye [PHCR-1367]

Used drive : Optiarc DVD RW AD-7200A Adapter: 0 ID: 0

Read mode : Secure
Utilize accurate stream : Yes
Defeat audio cache : Yes
Make use of C2 pointers : No

Read offset correction : 48
Overread into Lead-In and Lead-Out : No
Fill up missing offset samples with silence : Yes
Delete leading and trailing silent blocks : No
Null samples used in CRC calculations : Yes
Used interface : Native Win32 interface for Win NT & 2000

Used output format : User Defined Encoder
Selected bitrate : 128 kBit/s
Quality : High
Add ID3 tag : No
Command line compressor : C:\Program Files\Exact Audio Copy\Flac\flac.exe
Additional command line options : -8 -V -T "artist=%a" -T "title=%t" -T "album=%g" -T "date=%y" -T "tracknumber=%n" -T "genre=%m" -T "comment=EAC 0.9beta4 / FLAC 1.1.0 q6" %s


TOC of the extracted CD

Track | Start | Length | Start sector | End sector
---------------------------------------------------------
1 | 0:00.00 | 3:51.45 | 0 | 17369
2 | 3:51.45 | 4:17.22 | 17370 | 36666
3 | 8:08.67 | 4:29.60 | 36667 | 56901
4 | 12:38.52 | 4:39.10 | 56902 | 77836
5 | 17:17.62 | 4:32.38 | 77837 | 98274
6 | 21:50.25 | 4:02.05 | 98275 | 116429
7 | 25:52.30 | 3:39.45 | 116430 | 132899
8 | 29:32.00 | 4:32.32 | 132900 | 153331
9 | 34:04.32 | 8:17.40 | 153332 | 190646
10 | 42:21.72 | 4:58.25 | 190647 | 213021


Range status and errors

Selected range

Filename Y:\Музыка\King Diamond\1995 The Spider's Lullabye\King Diamond - The Spider's Lullabye [PHCR-1367].wav

Peak level 100.0 %
Range quality 100.0 %
Copy CRC EBCA18F9
Copy OK

No errors occurred

End of status report


Состав:
King Diamond: All Vocals, Harpsichord, Keyboards
Andy LaRoque: Guitars
Herb Simonsen: Guitars
Chris Estes: Bass, Keyboards on Six Feet Under
Darrin Anthony: Drums

Народ

_________________
Витасу до Даймонда как Алсу до Руссоса | При переразмещении - спрашивать разрешение!!


Top
 Profile  
 
 
PostPosted: 06 May 2010 
Metal Collector
User avatar
Joined: 16 Nov 2008
Posts: 1237
Lоcаtion: Химки
Age: 35
Name: Андрей
Спасибо за очередную порцию даймондов!!!


Top
 Profile E-mail  
 
Display posts from previous:  Sort by  
Post new topic Reply to topic  [ 2 posts ] 

All times are UTC + 3 hours


Who is online

Users browsing this forum: No registered users and 1 guest


You cannot post new topics in this forum
You cannot reply to topics in this forum
You cannot edit your posts in this forum
You cannot delete your posts in this forum
You cannot post attachments in this forum

Search for:
Яндекс.Метрика
cron
Powered by phpBB © 2000, 2002, 2005, 2007 phpBB Group