\m/ 80's metal \m/

Информационно-аналитический форум "80 см пыли" (In Search We Trust) "У нас никто никуда не спешит"
Me For You - http://me-4u.com
It is currently 26 Mar 2019

All times are UTC + 3 hours

Spoiler
Chat - temporary registration for foreign users (please leave your application here)







Post new topic Reply to topic  [ 3 posts ] 
Author Message
 
PostPosted: 06 May 2010 
ыыыы
User avatar
Joined: 17 May 2009
Posts: 952
Lоcаtion: Пушкино, МО
Age: 40
Name: Дмитрий
Image


Жанр: Heavy Metal
Происхождение исполнителя: Дания
Год издания: 1991
Год издания данного носителя: 1992
Страна-производитель носителя: Япония
Аудио кодек: FLAC
Тип рипа: image+.cue
Битрейт аудио: lossless
Продолжительность: 52:50
Рип: Собственный
Лейбл: ROADRUNNER/F.E.M.S
Каталоговый номер: APCY-8066
Матрица: APCY-8066 1A1 C 1Y (CTA)

Треклист:
1. Funeral 01:56
2. Arrival 05:47
3. Come to the Sabbath 05:43
4. The Family Ghost 04:25
5. The 7th Day of July 1777 04:26
6. The Portrait 04:47
7. Guitar Solo (Andy) 03:37
8. The Possession 03:51
9. Abigail 04:29
10. Drum Solo 03:24
11. The Candle 06:02
12. No Presents for Christmas 04:24

"Куй"
REM GENRE "Heavy Metal"
REM DATE 1991
REM DISCID 9E0C620C
REM COMMENT "ExactAudioCopy v0.99pb5"
PERFORMER "King Diamond"
TITLE "In Concert 1987 - Abigail [APCY-8066]"
FILE "King Diamond - In Concert 1987 - Abigail [APCY-8066].flac" WAVE
TRACK 01 AUDIO
TITLE "Funeral"
PERFORMER "King Diamond"
INDEX 01 00:00:00
TRACK 02 AUDIO
TITLE "Arrival"
PERFORMER "King Diamond"
INDEX 01 01:55:47
TRACK 03 AUDIO
TITLE "Come To The Sabbath"
PERFORMER "King Diamond"
INDEX 01 07:42:72
TRACK 04 AUDIO
TITLE "The Family Ghost"
PERFORMER "King Diamond"
INDEX 01 13:25:72
TRACK 05 AUDIO
TITLE "The 7th Day Of July 1777"
PERFORMER "King Diamond"
INDEX 01 17:51:05
TRACK 06 AUDIO
TITLE "The Portrait"
PERFORMER "King Diamond"
INDEX 01 22:17:02
TRACK 07 AUDIO
TITLE "Guitar Solo Andy"
PERFORMER "King Diamond"
INDEX 01 27:04:07
TRACK 08 AUDIO
TITLE "The Possession"
PERFORMER "King Diamond"
INDEX 01 30:41:02
TRACK 09 AUDIO
TITLE "Abigail"
PERFORMER "King Diamond"
INDEX 01 34:31:55
TRACK 10 AUDIO
TITLE "Drum Solo"
PERFORMER "King Diamond"
INDEX 01 39:00:55
TRACK 11 AUDIO
TITLE "The Candle"
PERFORMER "King Diamond"
INDEX 01 42:25:17
TRACK 12 AUDIO
TITLE "No Presents For Christmas"
PERFORMER "King Diamond"
INDEX 01 48:26:62


"Лог"
Exact Audio Copy V0.99 prebeta 5 from 4. May 2009

EAC extraction logfile from 6. May 2010, 12:32

King Diamond / In Concert 1987 - Abigail [APCY-8066]

Used drive : Optiarc DVD RW AD-7200A Adapter: 0 ID: 0

Read mode : Secure
Utilize accurate stream : Yes
Defeat audio cache : Yes
Make use of C2 pointers : No

Read offset correction : 48
Overread into Lead-In and Lead-Out : No
Fill up missing offset samples with silence : Yes
Delete leading and trailing silent blocks : No
Null samples used in CRC calculations : Yes
Used interface : Native Win32 interface for Win NT & 2000

Used output format : User Defined Encoder
Selected bitrate : 128 kBit/s
Quality : High
Add ID3 tag : No
Command line compressor : C:\Program Files\Exact Audio Copy\Flac\flac.exe
Additional command line options : -8 -V -T "artist=%a" -T "title=%t" -T "album=%g" -T "date=%y" -T "tracknumber=%n" -T "genre=%m" -T "comment=EAC 0.9beta4 / FLAC 1.1.0 q6" %s


TOC of the extracted CD

Track | Start | Length | Start sector | End sector
---------------------------------------------------------
1 | 0:00.00 | 1:55.47 | 0 | 8671
2 | 1:55.47 | 5:47.25 | 8672 | 34721
3 | 7:42.72 | 5:43.00 | 34722 | 60446
4 | 13:25.72 | 4:25.08 | 60447 | 80329
5 | 17:51.05 | 4:25.72 | 80330 | 100276
6 | 22:17.02 | 4:47.05 | 100277 | 121806
7 | 27:04.07 | 3:36.70 | 121807 | 138076
8 | 30:41.02 | 3:50.53 | 138077 | 155379
9 | 34:31.55 | 4:29.00 | 155380 | 175554
10 | 39:00.55 | 3:24.37 | 175555 | 190891
11 | 42:25.17 | 6:01.45 | 190892 | 218011
12 | 48:26.62 | 4:23.38 | 218012 | 237774


Range status and errors

Selected range

Filename Y:\Музыка\King Diamond\1991 In Concert 1987 - Abigail\King Diamond - In Concert 1987 - Abigail [APCY-8066].wav

Peak level 89.9 %
Range quality 100.0 %
Copy CRC B779A37F
Copy OK

No errors occurred

End of status report


Состав:
King Diamond: Vocals
Andy LaRoque: Guitars
Michael Moon: Guitars
Timi Hansen: Bass
Mikkey Dee: Drums

Народ

_________________
Витасу до Даймонда как Алсу до Руссоса | При переразмещении - спрашивать разрешение!!


Top
 Profile  
 
 
PostPosted: 31 May 2010 
А может смените мне статус?..
User avatar
Joined: 01 Jun 2008
Posts: 559
Lоcаtion: Россия
Age: 43
Name: Вадик
О! Спасибо! :thanx:


Top
 Profile  
 
 
PostPosted: 31 May 2010 
metallpaparazzy
User avatar
Joined: 20 Dec 2009
Posts: 674
Lоcаtion: Днепропетровск
Age: 44
Name: Геннадий
:thanx: вот етого лосяру я пожалуй, стяну... как то не приходилось мне этот концертник заценить :pardon:


Top
 Profile E-mail  
 
Display posts from previous:  Sort by  
Post new topic Reply to topic  [ 3 posts ] 

All times are UTC + 3 hours


Who is online

Users browsing this forum: No registered users and 2 guests


You cannot post new topics in this forum
You cannot reply to topics in this forum
You cannot edit your posts in this forum
You cannot delete your posts in this forum
You cannot post attachments in this forum

Search for:
Яндекс.Метрика
cron
Powered by phpBB © 2000, 2002, 2005, 2007 phpBB Group