\m/ 80's metal \m/

Информационно-аналитический форум "80 см пыли" (In Search We Trust) "У нас никто никуда не спешит"
Me For You - http://me-4u.com
It is currently 13 Nov 2019

All times are UTC + 3 hours

Spoiler
Chat - temporary registration for foreign users (please leave your application here)







Post new topic Reply to topic  [ 2 posts ] 
Author Message
 
PostPosted: 06 May 2010 
ыыыы
User avatar
Joined: 17 May 2009
Posts: 952
Lоcаtion: Пушкино, МО
Age: 41
Name: Дмитрий
Image


Жанр: Heavy Metal
Происхождение исполнителя: Дания
Год издания: 1989
Год издания данного носителя: 1989
Страна-производитель носителя: Япония
Аудио кодек: FLAC
Тип рипа: image+.cue
Битрейт аудио: lossless
Продолжительность: 47:33
Рип: Собственный
Лейбл: ROADRUNNER/APOLLON/F.E.M.S.
Каталоговый номер: APCY-8001
Матрица: APCY-8001-A1D 11 (JVC)

Треклист:
1. At the Graves 08:58
2. Sleepless Nights 05:06
3. Lies 04:24
4. A Visit From the Dead 06:14
5. The Wedding Dream 06:03
6. 'Amon' Belongs to 'Them' 03:51
7. Something Weird 02:09
8. Victimized 05:22
9. Let It Be Done 01:14
10. Cremation 04:13

"Куй"
REM GENRE "Heavy Metal"
REM DATE 1989
REM DISCID 790B250A
REM COMMENT "ExactAudioCopy v0.99pb5"
PERFORMER "King Diamond"
TITLE "Conspiracy [APCY-8001]"
FILE "King Diamond - Conspiracy [APCY-8001].flac" WAVE
TRACK 01 AUDIO
TITLE "At The Graves"
PERFORMER "King Diamond"
INDEX 00 00:00:00
INDEX 01 00:00:37
TRACK 02 AUDIO
TITLE "Sleepless Nights"
PERFORMER "King Diamond"
INDEX 01 08:58:47
TRACK 03 AUDIO
TITLE "Lies"
PERFORMER "King Diamond"
INDEX 01 14:04:42
TRACK 04 AUDIO
TITLE "A Visit From The Dead"
PERFORMER "King Diamond"
INDEX 01 18:28:05
TRACK 05 AUDIO
TITLE "The Wedding Dream"
PERFORMER "King Diamond"
INDEX 00 24:41:05
INDEX 01 24:41:65
TRACK 06 AUDIO
TITLE "''Amon'' Belongs To ''Them''"
PERFORMER "King Diamond"
INDEX 01 30:44:65
TRACK 07 AUDIO
TITLE "Something Weird"
PERFORMER "King Diamond"
INDEX 01 34:36:17
TRACK 08 AUDIO
TITLE "Victimized"
PERFORMER "King Diamond"
INDEX 01 36:44:67
TRACK 09 AUDIO
TITLE "Let It Be Done"
PERFORMER "King Diamond"
INDEX 01 42:06:37
TRACK 10 AUDIO
TITLE "Cremation"
PERFORMER "King Diamond"
INDEX 00 43:20:14
INDEX 01 43:20:15


"Лог"
Exact Audio Copy V0.99 prebeta 5 from 4. May 2009

EAC extraction logfile from 6. May 2010, 12:10

King Diamond / Conspiracy [APCY-8001]

Used drive : Optiarc DVD RW AD-7200A Adapter: 0 ID: 0

Read mode : Secure
Utilize accurate stream : Yes
Defeat audio cache : Yes
Make use of C2 pointers : No

Read offset correction : 48
Overread into Lead-In and Lead-Out : No
Fill up missing offset samples with silence : Yes
Delete leading and trailing silent blocks : No
Null samples used in CRC calculations : Yes
Used interface : Native Win32 interface for Win NT & 2000

Used output format : User Defined Encoder
Selected bitrate : 128 kBit/s
Quality : High
Add ID3 tag : No
Command line compressor : C:\Program Files\Exact Audio Copy\Flac\flac.exe
Additional command line options : -8 -V -T "artist=%a" -T "title=%t" -T "album=%g" -T "date=%y" -T "tracknumber=%n" -T "genre=%m" -T "comment=EAC 0.9beta4 / FLAC 1.1.0 q6" %s


TOC of the extracted CD

Track | Start | Length | Start sector | End sector
---------------------------------------------------------
1 | 0:00.37 | 8:58.10 | 37 | 40396
2 | 8:58.47 | 5:05.70 | 40397 | 63341
3 | 14:04.42 | 4:23.38 | 63342 | 83104
4 | 18:28.05 | 6:13.60 | 83105 | 111139
5 | 24:41.65 | 6:03.00 | 111140 | 138364
6 | 30:44.65 | 3:51.27 | 138365 | 155716
7 | 34:36.17 | 2:08.50 | 155717 | 165366
8 | 36:44.67 | 5:21.45 | 165367 | 189486
9 | 42:06.37 | 1:13.53 | 189487 | 195014
10 | 43:20.15 | 4:13.15 | 195015 | 214004


Range status and errors

Selected range

Filename Y:\Музыка\King Diamond\1989 Conspiracy\King Diamond - Conspiracy [APCY-8001].wav

Peak level 100.0 %
Range quality 99.9 %
Copy CRC D4FBBCFB
Copy OK

No errors occurred

End of status report


Состав:
King Diamond: Vocals
Andy LaRoque: Guitar
Pete Blakk: Guitar
Hal Patino: Bass
Roberto Falcao: Keyboards
Drums by Mikkey Dee

Народ

_________________
Витасу до Даймонда как Алсу до Руссоса | При переразмещении - спрашивать разрешение!!


Top
 Profile  
 
 
PostPosted: 07 May 2010 
дядя Миша
User avatar
Joined: 17 Oct 2008
Posts: 3196
Lоcаtion: USSR
Age: 57
Name: Khy
спасибо! мне нравятся песенки с этого шедевра.


Top
 Profile  
 
Display posts from previous:  Sort by  
Post new topic Reply to topic  [ 2 posts ] 

All times are UTC + 3 hours


Who is online

Users browsing this forum: No registered users and 2 guests


You cannot post new topics in this forum
You cannot reply to topics in this forum
You cannot edit your posts in this forum
You cannot delete your posts in this forum
You cannot post attachments in this forum

Search for:
Яндекс.Метрика
cron
Powered by phpBB © 2000, 2002, 2005, 2007 phpBB Group