\m/ 80's metal \m/

Информационно-аналитический форум "80 см пыли" (In Search We Trust) "У нас никто никуда не спешит"
Me For You - http://me-4u.com
It is currently 22 Mar 2019

All times are UTC + 3 hours

Spoiler
Chat - temporary registration for foreign users (please leave your application here)







Post new topic Reply to topic  [ 11 posts ] 
Author Message
 
PostPosted: 09 Apr 2010 
ыыыы
User avatar
Joined: 17 May 2009
Posts: 952
Lоcаtion: Пушкино, МО
Age: 40
Name: Дмитрий
Image


Жанр: Thrash Metal
Происхождение исполнителя: Германия
Год издания: 1991
Год издания данного носителя: 1991
Страна-производитель носителя: Япония
Аудио кодек: FLAC
Тип рипа: image+.cue
Битрейт аудио: lossless
Продолжительность: 66:30
Рип: Собственный
Лейбл: NOISE/VICTOR
Каталоговый номер: VICP-8055
Матрица: VICP-8055-1 2F 11 V IFPI L232 (JVC)

Треклист:
1. Choir of the Damned 01:40
2. Ripping Corpse 03:36
3. Death Is Your Saviour 03:58
4. Pleasure to Kill 04:11
5. Riot of Violence 04:56
6. The Pestilence 06:58
7. Carrion 04:48
8. Command of the Blade 03:57
9. Under the Guillotine 04:38
10. Flag of Hate 03:57
11. Take Their Lives 06:27
12. Awakening of the Gods 07:31
13. Endless Pain 03:31
14. Tormentor 02:55
15. Total Death 03:28

"Куй"
REM GENRE "Thrash Metal"
REM DATE 1991
REM DISCID C20F960F
REM COMMENT "ExactAudioCopy v0.99pb5"
PERFORMER "Kreator"
TITLE "Pleasure to Kill/Flag of Hate [VICP-8055]"
FILE "Kreator - Pleasure to Kill Flag of Hate [VICP-8055].flac" WAVE
TRACK 01 AUDIO
TITLE "Choir of the Damned"
PERFORMER "Kreator"
INDEX 01 00:00:00
TRACK 02 AUDIO
TITLE "Ripping Corpse"
PERFORMER "Kreator"
INDEX 01 01:40:25
TRACK 03 AUDIO
TITLE "Death Is Your Saviour"
PERFORMER "Kreator"
INDEX 00 05:15:08
INDEX 01 05:16:20
TRACK 04 AUDIO
TITLE "Pleasure to Kill"
PERFORMER "Kreator"
INDEX 00 09:13:11
INDEX 01 09:14:55
TRACK 05 AUDIO
TITLE "Riot of Violence"
PERFORMER "Kreator"
INDEX 00 13:23:73
INDEX 01 13:25:45
TRACK 06 AUDIO
TITLE "The Pestilence"
PERFORMER "Kreator"
INDEX 00 18:20:03
INDEX 01 18:21:50
TRACK 07 AUDIO
TITLE "Carrion"
PERFORMER "Kreator"
INDEX 00 25:18:13
INDEX 01 25:19:25
TRACK 08 AUDIO
TITLE "Command of the Blade"
PERFORMER "Kreator"
INDEX 00 30:06:31
INDEX 01 30:07:37
TRACK 09 AUDIO
TITLE "Under the Guillotine"
PERFORMER "Kreator"
INDEX 00 34:03:33
INDEX 01 34:04:02
TRACK 10 AUDIO
TITLE "Flag of Hate"
PERFORMER "Kreator"
INDEX 00 38:41:23
INDEX 01 38:42:32
TRACK 11 AUDIO
TITLE "Take Their Lives"
PERFORMER "Kreator"
INDEX 00 42:37:26
INDEX 01 42:39:00
TRACK 12 AUDIO
TITLE "Awakening of the Gods"
PERFORMER "Kreator"
INDEX 00 49:05:01
INDEX 01 49:05:47
TRACK 13 AUDIO
TITLE "Endless Pain"
PERFORMER "Kreator"
INDEX 00 56:35:21
INDEX 01 56:36:72
TRACK 14 AUDIO
TITLE "Tormentor"
PERFORMER "Kreator"
INDEX 00 60:06:68
INDEX 01 60:08:12
TRACK 15 AUDIO
TITLE "Total Death"
PERFORMER "Kreator"
INDEX 00 63:01:21
INDEX 01 63:02:50


"Лог"
Exact Audio Copy V0.99 prebeta 5 from 4. May 2009

EAC extraction logfile from 9. April 2010, 10:42

Kreator / Pleasure to Kill/Flag of Hate [VICP-8055]

Used drive : Optiarc DVD RW AD-7200A Adapter: 0 ID: 0

Read mode : Secure
Utilize accurate stream : Yes
Defeat audio cache : Yes
Make use of C2 pointers : No

Read offset correction : 48
Overread into Lead-In and Lead-Out : No
Fill up missing offset samples with silence : Yes
Delete leading and trailing silent blocks : No
Null samples used in CRC calculations : Yes
Used interface : Native Win32 interface for Win NT & 2000

Used output format : User Defined Encoder
Selected bitrate : 128 kBit/s
Quality : High
Add ID3 tag : No
Command line compressor : C:\Program Files\Exact Audio Copy\Flac\flac.exe
Additional command line options : -8 -V -T "artist=%a" -T "title=%t" -T "album=%g" -T "date=%y" -T "tracknumber=%n" -T "genre=%m" -T "comment=EAC 0.9beta4 / FLAC 1.1.0 q6" %s


TOC of the extracted CD

Track | Start | Length | Start sector | End sector
---------------------------------------------------------
1 | 0:00.00 | 1:40.25 | 0 | 7524
2 | 1:40.25 | 3:35.70 | 7525 | 23719
3 | 5:16.20 | 3:58.35 | 23720 | 41604
4 | 9:14.55 | 4:10.65 | 41605 | 60419
5 | 13:25.45 | 4:56.05 | 60420 | 82624
6 | 18:21.50 | 6:57.50 | 82625 | 113949
7 | 25:19.25 | 4:48.12 | 113950 | 135561
8 | 30:07.37 | 3:56.40 | 135562 | 153301
9 | 34:04.02 | 4:38.30 | 153302 | 174181
10 | 38:42.32 | 3:56.43 | 174182 | 191924
11 | 42:39.00 | 6:26.47 | 191925 | 220921
12 | 49:05.47 | 7:31.25 | 220922 | 254771
13 | 56:36.72 | 3:31.15 | 254772 | 270611
14 | 60:08.12 | 2:54.38 | 270612 | 283699
15 | 63:02.50 | 3:27.60 | 283700 | 299284


Range status and errors

Selected range

Filename Y:\Музыка\Kreator\1991 Pleasure to Kill- Flag of Hate\Kreator - Pleasure to Kill Flag of Hate [VICP-8055].wav

Peak level 100.0 %
Range quality 100.0 %
Copy CRC 65D0784C
Copy OK

No errors occurred

End of status report


Состав:
Ventor: Drums, vocals, screams
Mille: Guitars, vocals
Rob: Bass

Народ

_________________
Витасу до Даймонда как Алсу до Руссоса | При переразмещении - спрашивать разрешение!!


Top
 Profile  
 
 
PostPosted: 09 Apr 2010 
HAMMER
User avatar
Joined: 16 May 2009
Posts: 5470
Lоcаtion: Тверь
Age: 46
Name: Александр
:thanx:


Top
 Profile E-mail  
 
 
PostPosted: 10 Apr 2010 
5cm
User avatar
Joined: 01 Mar 2009
Posts: 61
Name: Сергей
БОЛЬШОЕ СПАСИБО !!!


Top
 Profile  
 
 
PostPosted: 12 Apr 2010 
труъ антисионист
User avatar
Joined: 01 Aug 2007
Posts: 4541
Lоcаtion: Откуда и большинство из нас
Age: 38
Name: Дядя Вова
Эх, мой самый любимый альбом, конечно немного сыроват, зато сколько драйва и агрессии :true:

_________________
Image
Image


Top
 Profile  
 
 
PostPosted: 11 Aug 2010 
ыыыы
User avatar
Joined: 17 May 2009
Posts: 952
Lоcаtion: Пушкино, МО
Age: 40
Name: Дмитрий
скоро можно ожидать 85, 90, 92, 95 и 96-й :true:

_________________
Витасу до Даймонда как Алсу до Руссоса | При переразмещении - спрашивать разрешение!!


Top
 Profile  
 
 
PostPosted: 12 Aug 2010 
Motörheadache
User avatar
Joined: 04 Feb 2010
Posts: 1294
Lоcаtion: Впереди- горы,позади-степи
Age: 46
Name: Александр
КРЕЙ-ТОР !!КРЕЙ-ТОР!!! :true: :true: :true:
Один из наиболее почитаемых....

_________________
Eine Nation, Ein Land, Eine Schnaps!

Наш священный долг:защищать Родину,и соблюдать правила личной гигиены....!


Top
 Profile E-mail  
 
 
PostPosted: 12 Aug 2010 
Труъ
User avatar
Joined: 14 Jul 2010
Posts: 104
Lоcаtion: Украина, Донецк
Age: 33
Name: Санёк
Дмитрий, так Вы нас порадуете дебютничком Skid Row? :oops:

_________________
Rock 'N' Roll is the only thing that keeps me from breaking apart (c)


Top
 Profile E-mail  
 
 
PostPosted: 12 Aug 2010 
ыыыы
User avatar
Joined: 17 May 2009
Posts: 952
Lоcаtion: Пушкино, МО
Age: 40
Name: Дмитрий
ща выложу

_________________
Витасу до Даймонда как Алсу до Руссоса | При переразмещении - спрашивать разрешение!!


Top
 Profile  
 
 
PostPosted: 10 Dec 2010 
5-speed satisfactor
User avatar
Joined: 16 Feb 2009
Posts: 3708
Lоcаtion: New York, USA
Age: 40
Name: Leonid
Перезалить низя? Ну хотя бы последние 6 треков? :thanx:

_________________
Death rules! Metal to all who oppose!


Top
 Profile  
 
 
PostPosted: 15 Dec 2010 
Хиппей (support team)
User avatar
Joined: 30 Jul 2007
Posts: 111079
Lоcаtion: Киев (Kyiv, UA)
Age: 45
Name: Andrey
Нажал напоминалку...

_________________


Top
 Profile E-mail  
 
 
PostPosted: 16 Dec 2010 
Хиппей (support team)
User avatar
Joined: 30 Jul 2007
Posts: 111079
Lоcаtion: Киев (Kyiv, UA)
Age: 45
Name: Andrey
Опа. Не нашёл у себя лосика.
А тута http://rutracker.org/forum/viewtopic.php?t=2890794 поглощено :shok:

Перезалейте, плиз, кто-нить :help:

_________________


Top
 Profile E-mail  
 
Display posts from previous:  Sort by  
Post new topic Reply to topic  [ 11 posts ] 

All times are UTC + 3 hours


Who is online

Users browsing this forum: No registered users and 1 guest


You cannot post new topics in this forum
You cannot reply to topics in this forum
You cannot edit your posts in this forum
You cannot delete your posts in this forum
You cannot post attachments in this forum

Search for:
Яндекс.Метрика
Powered by phpBB © 2000, 2002, 2005, 2007 phpBB Group