\m/ 80's metal \m/

Информационно-аналитический форум "80 см пыли" (In Search We Trust) "У нас никто никуда не спешит"
Me For You - http://me-4u.com
It is currently 17 Jun 2019

All times are UTC + 3 hours

Spoiler
Chat - temporary registration for foreign users (please leave your application here)







Post new topic Reply to topic  [ 2 posts ] 
Author Message
 
PostPosted: 09 Apr 2010 
ыыыы
User avatar
Joined: 17 May 2009
Posts: 952
Lоcаtion: Пушкино, МО
Age: 40
Name: Дмитрий
Image


Жанр: Thrash Metal
Происхождение исполнителя: Германия
Год издания: 1989
Год издания данного носителя: 1989
Страна-производитель носителя: Япония
Аудио кодек: FLAC
Тип рипа: image+.cue
Битрейт аудио: lossless
Продолжительность: 37:32
Рип: Собственный
Лейбл: NOISE/EPIC
Каталоговый номер: ESCA-5023
Матрица: DP-3358 1 (SONY)

Треклист:
1. Extreme Aggression 04:44
2. No Reason to Exist 04:37
3. Love Us or Hate Us 03:43
4. Stream of Consciousness 03:53
5. Some Pain Will Last 05:39
6. Betrayer 03:59
7. Don't Trust 03:43
8. Bringer of Torture 02:16
9. Fatal Energy 04:58

"Куй"
REM GENRE "Trash Metal"
REM DATE 1989
REM DISCID 8308CC09
REM COMMENT "ExactAudioCopy v0.99pb5"
PERFORMER "Kreator"
TITLE "Extreme Aggression [ESCA-5023]"
FILE "Kreator - Extreme Aggression [ESCA-5023].flac" WAVE
TRACK 01 AUDIO
TITLE "Extreme Agression"
PERFORMER "Kreator"
INDEX 01 00:00:00
TRACK 02 AUDIO
TITLE "No Reason To Exist"
PERFORMER "Kreator"
INDEX 01 04:43:67
TRACK 03 AUDIO
TITLE "Love Us Or Hate Us"
PERFORMER "Kreator"
INDEX 01 09:20:67
TRACK 04 AUDIO
TITLE "Stream Of Consciousness"
PERFORMER "Kreator"
INDEX 01 13:03:37
TRACK 05 AUDIO
TITLE "Some Pain Will Last"
PERFORMER "Kreator"
INDEX 01 16:56:47
TRACK 06 AUDIO
TITLE "Betrayer"
PERFORMER "Kreator"
INDEX 01 22:36:02
TRACK 07 AUDIO
TITLE "Don't Trust"
PERFORMER "Kreator"
INDEX 01 26:35:27
TRACK 08 AUDIO
TITLE "Bringer Of Torture"
PERFORMER "Kreator"
INDEX 01 30:18:32
TRACK 09 AUDIO
TITLE "Fatal Energy"
PERFORMER "Kreator"
INDEX 01 32:34:05


"Лог"
Exact Audio Copy V0.99 prebeta 5 from 4. May 2009

EAC extraction logfile from 9. April 2010, 9:59

Kreator / Extreme Aggression [ESCA-5023]

Used drive : Optiarc DVD RW AD-7200A Adapter: 0 ID: 0

Read mode : Secure
Utilize accurate stream : Yes
Defeat audio cache : Yes
Make use of C2 pointers : No

Read offset correction : 48
Overread into Lead-In and Lead-Out : No
Fill up missing offset samples with silence : Yes
Delete leading and trailing silent blocks : No
Null samples used in CRC calculations : Yes
Used interface : Native Win32 interface for Win NT & 2000

Used output format : User Defined Encoder
Selected bitrate : 128 kBit/s
Quality : High
Add ID3 tag : No
Command line compressor : C:\Program Files\Exact Audio Copy\Flac\flac.exe
Additional command line options : -8 -V -T "artist=%a" -T "title=%t" -T "album=%g" -T "date=%y" -T "tracknumber=%n" -T "genre=%m" -T "comment=EAC 0.9beta4 / FLAC 1.1.0 q6" %s


TOC of the extracted CD

Track | Start | Length | Start sector | End sector
---------------------------------------------------------
1 | 0:00.00 | 4:43.67 | 0 | 21291
2 | 4:43.67 | 4:37.00 | 21292 | 42066
3 | 9:20.67 | 3:42.45 | 42067 | 58761
4 | 13:03.37 | 3:53.10 | 58762 | 76246
5 | 16:56.47 | 5:39.30 | 76247 | 101701
6 | 22:36.02 | 3:59.25 | 101702 | 119651
7 | 26:35.27 | 3:43.05 | 119652 | 136381
8 | 30:18.32 | 2:15.48 | 136382 | 146554
9 | 32:34.05 | 4:58.12 | 146555 | 168916


Range status and errors

Selected range

Filename Y:\Музыка\Kreator\1989 Extreme Aggression\Kreator - Extreme Aggression [ESCA-5023].wav

Peak level 100.0 %
Range quality 100.0 %
Copy CRC 82F3492E
Copy OK

No errors occurred

End of status report


Состав:
Mille Petrozza: Guitar / Vocals
Jörg Trzebiatowski: Guitar
Rob Fioretti: Bass
Jürgen "Ventor" Reil: Drums

Народ

#####
KREATOR plays they own stuff because nobody gave us endorsements yet, except for PAISTE and B.C.RICH )))
Бедные ребята!!! :nunu:

_________________
Витасу до Даймонда как Алсу до Руссоса | При переразмещении - спрашивать разрешение!!


Top
 Profile  
 
 
PostPosted: 10 Apr 2010 
5cm
User avatar
Joined: 01 Mar 2009
Posts: 61
Name: Сергей
БОЛЬШОЕ СПАСИБО !!!


Top
 Profile  
 
Display posts from previous:  Sort by  
Post new topic Reply to topic  [ 2 posts ] 

All times are UTC + 3 hours


Who is online

Users browsing this forum: No registered users and 1 guest


You cannot post new topics in this forum
You cannot reply to topics in this forum
You cannot edit your posts in this forum
You cannot delete your posts in this forum
You cannot post attachments in this forum

Search for:
Яндекс.Метрика
Powered by phpBB © 2000, 2002, 2005, 2007 phpBB Group