\m/ 80's metal \m/

Информационно-аналитический форум "80 см пыли" (In Search We Trust) "У нас никто никуда не спешит"
Me For You - http://me-4u.com
It is currently 19 Oct 2019

All times are UTC + 3 hours

Spoiler
Chat - temporary registration for foreign users (please leave your application here)







Post new topic Reply to topic  [ 10 posts ] 
Author Message
 
PostPosted: 04 Apr 2010 
ыыыы
User avatar
Joined: 17 May 2009
Posts: 952
Lоcаtion: Пушкино, МО
Age: 41
Name: Дмитрий
Image


Жанр: Heavy Metal
Происхождение исполнителя: Дания
Год издания: 1990
Год издания данного носителя: 1990
Страна-производитель носителя: Япония
Аудио кодек: FLAC
Тип рипа: image+.cue
Битрейт аудио: lossless
Продолжительность: 44:05
Рип: Собственный
Лейбл: ROADRUNNER/F.E.M.S
Каталоговый номер: APCY-8031
Матрица: APCY-8031-A1F 11 V (JVC)

Треклист:
1. Eye of the Witch 03:48
2. The Trial (Chambre Ardente) 05:13
3. Burn 03:43
4. Two Little Girls 02:41
5. Into the Convent 04:48
6. Father Picard 03:20
7. Behind These Walls 03:45
8. The Meetings 04:32
9. Insanity 03:00
10. 1642 Imprisonment 03:31
11. The Curse 05:44

"Куй"
REM GENRE "Heavy Metal"
REM DATE 1990
REM DISCID 780A550B
REM COMMENT "ExactAudioCopy v0.99pb5"
PERFORMER "King Diamond"
TITLE "The Eye [APCY-8031]"
FILE "King Diamond - The Eye [APCY-8031].flac" WAVE
TRACK 01 AUDIO
TITLE "Eye Of The Witch"
PERFORMER "King Diamond"
INDEX 00 00:00:00
INDEX 01 00:00:37
TRACK 02 AUDIO
TITLE "The Trial (Chambre Ardente)"
PERFORMER "King Diamond"
INDEX 01 03:48:02
TRACK 03 AUDIO
TITLE "Burn"
PERFORMER "King Diamond"
INDEX 01 09:01:07
TRACK 04 AUDIO
TITLE "Two Little Girls"
PERFORMER "King Diamond"
INDEX 01 12:43:57
TRACK 05 AUDIO
TITLE "Into The Convent"
PERFORMER "King Diamond"
INDEX 00 15:25:13
INDEX 01 15:25:15
TRACK 06 AUDIO
TITLE "Father Picard"
PERFORMER "King Diamond"
INDEX 00 20:13:23
INDEX 01 20:13:25
TRACK 07 AUDIO
TITLE "Behind These Walls"
PERFORMER "King Diamond"
INDEX 00 23:33:18
INDEX 01 23:33:20
TRACK 08 AUDIO
TITLE "The Meetings"
PERFORMER "King Diamond"
INDEX 00 27:18:38
INDEX 01 27:18:40
TRACK 09 AUDIO
TITLE "Insanity"
PERFORMER "King Diamond"
INDEX 01 31:50:32
TRACK 10 AUDIO
TITLE "1642 Imprisonment"
PERFORMER "King Diamond"
INDEX 01 34:50:42
TRACK 11 AUDIO
TITLE "The Curse"
PERFORMER "King Diamond"
INDEX 00 38:21:63
INDEX 01 38:21:65


"Лог"
Exact Audio Copy V0.99 prebeta 5 from 4. May 2009

EAC extraction logfile from 4. April 2010, 17:59

King Diamond / The Eye [APCY-8031]

Used drive : Optiarc DVD RW AD-7200A Adapter: 0 ID: 0

Read mode : Secure
Utilize accurate stream : Yes
Defeat audio cache : Yes
Make use of C2 pointers : No

Read offset correction : 48
Overread into Lead-In and Lead-Out : No
Fill up missing offset samples with silence : Yes
Delete leading and trailing silent blocks : No
Null samples used in CRC calculations : Yes
Used interface : Native Win32 interface for Win NT & 2000

Used output format : User Defined Encoder
Selected bitrate : 128 kBit/s
Quality : High
Add ID3 tag : No
Command line compressor : C:\Program Files\Exact Audio Copy\Flac\flac.exe
Additional command line options : -8 -V -T "artist=%a" -T "title=%t" -T "album=%g" -T "date=%y" -T "tracknumber=%n" -T "genre=%m" -T "comment=EAC 0.9beta4 / FLAC 1.1.0 q6" %s


TOC of the extracted CD

Track | Start | Length | Start sector | End sector
---------------------------------------------------------
1 | 0:00.37 | 3:47.40 | 37 | 17101
2 | 3:48.02 | 5:13.05 | 17102 | 40581
3 | 9:01.07 | 3:42.50 | 40582 | 57281
4 | 12:43.57 | 2:41.33 | 57282 | 69389
5 | 15:25.15 | 4:48.10 | 69390 | 90999
6 | 20:13.25 | 3:19.70 | 91000 | 105994
7 | 23:33.20 | 3:45.20 | 105995 | 122889
8 | 27:18.40 | 4:31.67 | 122890 | 143281
9 | 31:50.32 | 3:00.10 | 143282 | 156791
10 | 34:50.42 | 3:31.23 | 156792 | 172639
11 | 38:21.65 | 5:43.47 | 172640 | 198411


Range status and errors

Selected range

Filename Y:\Музыка\King Diamond\1990 The Eye\King Diamond - The Eye [APCY-8031].wav

Peak level 100.0 %
Range quality 100.0 %
Copy CRC 2E61208D
Copy OK

No errors occurred

End of status report


Состав:
King Diamond : Vocals, keyboards
Andy LaRoque : Guitars
Hal Patino : Bass
Pete Blakk : Guitars
Snowy Shaw : drums

Megaupload

_________________
Витасу до Даймонда как Алсу до Руссоса | При переразмещении - спрашивать разрешение!!


Top
 Profile  
 
 
PostPosted: 06 Apr 2010 
Power Metal Maniac
User avatar
Joined: 09 Aug 2008
Posts: 6915
Lоcаtion: Москва
Age: 41
Name: Егор
Звук отличается от обычного издания? На обычном-то он весьма плохенький, а альбом ведь потрясный.

_________________
Long Live Metal!


Top
 Profile  
 
 
PostPosted: 06 Apr 2010 
Зарегился вот...
Joined: 28 Mar 2010
Posts: 3
Lоcаtion: с левого
Name: Фокс
Спасибо огромное :thanx: :dance: :meloman:


Top
 Profile E-mail  
 
 
PostPosted: 06 Apr 2010 
А может смените мне статус?..
User avatar
Joined: 01 Jun 2008
Posts: 559
Lоcаtion: Россия
Age: 43
Name: Вадик
А Abigail Live есть лосиный?


Top
 Profile  
 
 
PostPosted: 06 Apr 2010 
ыыыы
User avatar
Joined: 17 May 2009
Posts: 952
Lоcаtion: Пушкино, МО
Age: 41
Name: Дмитрий
rats
Есть :)

_________________
Витасу до Даймонда как Алсу до Руссоса | При переразмещении - спрашивать разрешение!!


Top
 Profile  
 
 
PostPosted: 06 Apr 2010 
А может смените мне статус?..
User avatar
Joined: 01 Jun 2008
Posts: 559
Lоcаtion: Россия
Age: 43
Name: Вадик
iezuit wrote:
rats
Есть :)

Как-нить на досуге зальешь? :oops:


Top
 Profile  
 
 
PostPosted: 06 Apr 2010 
ыыыы
User avatar
Joined: 17 May 2009
Posts: 952
Lоcаtion: Пушкино, МО
Age: 41
Name: Дмитрий
попробую!

_________________
Витасу до Даймонда как Алсу до Руссоса | При переразмещении - спрашивать разрешение!!


Top
 Profile  
 
 
PostPosted: 06 Apr 2010 
Хиппей (support team)
User avatar
Joined: 30 Jul 2007
Posts: 114929
Lоcаtion: Киев (Kyiv, UA)
Age: 46
Name: Andrey
Любимый альбом :cry:
Спасибо, Дим :true:

_________________


Top
 Profile E-mail  
 
 
PostPosted: 06 Apr 2010 
ыыыы
User avatar
Joined: 17 May 2009
Posts: 952
Lоcаtion: Пушкино, МО
Age: 41
Name: Дмитрий
Scatterbrain
только заметил?? :nunu:

_________________
Витасу до Даймонда как Алсу до Руссоса | При переразмещении - спрашивать разрешение!!


Top
 Profile  
 
 
PostPosted: 06 Apr 2010 
Хиппей (support team)
User avatar
Joined: 30 Jul 2007
Posts: 114929
Lоcаtion: Киев (Kyiv, UA)
Age: 46
Name: Andrey
Не, просто качать некуды было. А тут как раз чуток места освободилось :true:

_________________


Top
 Profile E-mail  
 
Display posts from previous:  Sort by  
Post new topic Reply to topic  [ 10 posts ] 

All times are UTC + 3 hours


Who is online

Users browsing this forum: No registered users and 1 guest


You cannot post new topics in this forum
You cannot reply to topics in this forum
You cannot edit your posts in this forum
You cannot delete your posts in this forum
You cannot post attachments in this forum

Search for:
Яндекс.Метрика
Powered by phpBB © 2000, 2002, 2005, 2007 phpBB Group