\m/ 80's metal \m/

Информационно-аналитический форум "80 см пыли" (In Search We Trust) "У нас никто никуда не спешит"
Me For You - http://me-4u.com
It is currently 17 Oct 2019

All times are UTC + 3 hours

Spoiler
Chat - temporary registration for foreign users (please leave your application here)







Post new topic Reply to topic  [ 5 posts ] 
Author Message
 
PostPosted: 04 Apr 2010 
труъ антисионист
User avatar
Joined: 01 Aug 2007
Posts: 4544
Lоcаtion: Откуда и большинство из нас
Age: 38
Name: Дядя Вова
Image
Группа: Korzus
Альбом: Mass Illusion
Год: 1991
Лейбл: Devil Discos
Стиль: Thrash Metal
Страна: Brazil
Формат: Flac/Log/Cue/Scans
Размер: 321 Mb

******************************************************************************

Line Up:

MARCELLO PONPEU - VOCALS
SILVIO GOLFETTI - GUITAR
MARCELLO NICASTRO - GUITAR
DICK SIEBERT- BASS
ROBERTO SILECI - DRUMS


Tracks:
01. Agony (3:34)
02. Victim of Progress (3:02)
03. Pay for your lies (3:34)
04. Beyond the limits of insanity (2:46)
05. Umpredistable Disease (4:15)
06. Mass Illusion (4:44)
07. Kids of the Streets (3:31)
08. Blood for Blood (2:47)
09. Living in Pain (3:12)
10. Raise your head (2:28)
11. Midnight Madness (5:09)
12. The Illuminated (1:30)


LOG
Exact Audio Copy V0.99 prebeta 3 from 28. July 2007

EAC extraction logfile from 4. April 2010, 10:36

Korzus / Mass Illusion

Used drive : TEAC CD-W552G Adapter: 0 ID: 2

Read mode : Secure
Utilize accurate stream : Yes
Defeat audio cache : Yes
Make use of C2 pointers : No

Read offset correction : 6
Overread into Lead-In and Lead-Out : No
Fill up missing offset samples with silence : Yes
Delete leading and trailing silent blocks : No
Null samples used in CRC calculations : Yes
Used interface : Native Win32 interface for Win NT & 2000

Used output format : Internal WAV Routines
Sample format : 44.100 Hz; 16 Bit; Stereo


TOC of the extracted CD

Track | Start | Length | Start sector | End sector
---------------------------------------------------------
1 | 0:00.00 | 3:33.69 | 0 | 16043
2 | 3:33.69 | 3:01.67 | 16044 | 29685
3 | 6:35.61 | 3:33.58 | 29686 | 45718
4 | 10:09.44 | 2:46.25 | 45719 | 58193
5 | 12:55.69 | 4:14.74 | 58194 | 77317
6 | 17:10.68 | 4:43.60 | 77318 | 98602
7 | 21:54.53 | 3:31.32 | 98603 | 114459
8 | 25:26.10 | 2:46.71 | 114460 | 126980
9 | 28:13.06 | 3:12.05 | 126981 | 141385
10 | 31:25.11 | 2:27.49 | 141386 | 152459
11 | 33:52.60 | 5:09.22 | 152460 | 175656
12 | 39:02.07 | 1:29.72 | 175657 | 182403


Range status and errors

Selected range

Filename H:\Glot\Korzus - Mass Illusion.wav

Peak level 98.8 %
Range quality 99.9 %
Copy CRC 9F156AC3
Copy OK

No errors occurred


AccurateRip summary

Track 1 not present in database
Track 2 not present in database
Track 3 not present in database
Track 4 not present in database
Track 5 not present in database
Track 6 not present in database
Track 7 not present in database
Track 8 not present in database
Track 9 not present in database
Track 10 not present in database
Track 11 not present in database
Track 12 not present in database

None of the tracks are present in the AccurateRip database

End of status report


[youtube]<object width="480" height="385"><param name="movie" value="http://www.youtube.com/v/igWq5I5NWXE&hl=ru_RU&fs=1&"></param><param name="allowFullScreen" value="true"></param><param name="allowscriptaccess" value="always"></param><embed src="http://www.youtube.com/v/igWq5I5NWXE&hl=ru_RU&fs=1&" type="application/x-shockwave-flash" allowscriptaccess="always" allowfullscreen="true" width="480" height="385"></embed></object>[/youtube]
===================================DOWNLOAD========================================
http://ifolder.ru/17120456
Korzus [1991] [CD] Mass Illusion [EAC-FLAC] By Glot [MeTaLMaDNeSS.TeaM].rar

_________________
Image
Image


Top
 Profile  
 
 
PostPosted: 04 Apr 2010 
Прокъмитолист
User avatar
Joined: 12 Aug 2007
Posts: 6623
Lоcаtion: Санктъ-Петербуркъ
Age: 51
Name: Олекъ
спасибо, Володь! :thanx: тащу с ММТ :dance: :true:

_________________
прокъметол - это музыко, от которово есть прок (ы)


Top
 Profile  
 
 
PostPosted: 05 Apr 2010 
труъ антисионист
User avatar
Joined: 01 Aug 2007
Posts: 4544
Lоcаtion: Откуда и большинство из нас
Age: 38
Name: Дядя Вова
Собственно надо Димке-Изуиту спасибо тоже передать, он мне его подогнал!

_________________
Image
Image


Top
 Profile  
 
 
PostPosted: 05 Apr 2010 
Хиппей (support team)
User avatar
Joined: 30 Jul 2007
Posts: 114883
Lоcаtion: Киев (Kyiv, UA)
Age: 46
Name: Andrey
Пасибке всем! :true:

_________________


Top
 Profile E-mail  
 
 
PostPosted: 26 Feb 2012 
Трешер
User avatar
Joined: 25 Feb 2011
Posts: 1115
Lоcаtion: Харьков
Age: 43
Name: Aleksandr
Просто отлично ! :true: Никогда их раньше не слышал .


Top
 Profile E-mail  
 
Display posts from previous:  Sort by  
Post new topic Reply to topic  [ 5 posts ] 

All times are UTC + 3 hours


Who is online

Users browsing this forum: No registered users and 1 guest


You cannot post new topics in this forum
You cannot reply to topics in this forum
You cannot edit your posts in this forum
You cannot delete your posts in this forum
You cannot post attachments in this forum

Search for:
Яндекс.Метрика
Powered by phpBB © 2000, 2002, 2005, 2007 phpBB Group