\m/ 80's metal \m/

Информационно-аналитический форум "80 см пыли" (In Search We Trust) "У нас никто никуда не спешит"
Me For You - http://me-4u.com
It is currently 13 Dec 2019

All times are UTC + 3 hours

Spoiler
Chat - temporary registration for foreign users (please leave your application here)







Post new topic Reply to topic  [ 4 posts ] 
Author Message
 
PostPosted: 31 Mar 2010 
ыыыы
User avatar
Joined: 17 May 2009
Posts: 952
Lоcаtion: Пушкино, МО
Age: 41
Name: Дмитрий
Image


Жанр: Heavy Metal
Происхождение исполнителя: Дания
Год издания: 1992
Год издания данного носителя: 1992
Страна-производитель носителя: Япония
Аудио кодек: FLAC
Тип рипа: image+.cue
Битрейт аудио: lossless
Продолжительность: 77:47
Рип: Собственный
Лейбл: ROADRUNNER/F.E.M.S.
Каталоговый номер: APCY-8112
Матрица: APCY-8112-A1G 11 V (JVC)

Треклист:
1. Doomed By the Living Dead 05:08
2. A Corpse Without Soul 06:56
3. Evil 04:45
4. Curse of the Pharaohs 03:58
5. A Dangerous Meeting 05:11
6. Gypsy 03:08
7. Come to the Sabbath 05:18
8. The Candle 06:42
9. Charon 04:17
10. Halloween 04:14
11. No Presents For Christmas 04:21
12. Arrival 05:29
13. Abigail 04:51
14. Welcome Home 04:36
15. Sleepless Nights 05:04
16. Eye of the Witch 03:49

"Куй"
REM GENRE "Heavy Metal"
REM DATE 1992
REM DISCID DC123B10
REM COMMENT "ExactAudioCopy v0.99pb5"
PERFORMER "King Diamond"
TITLE "Mercyful Fate / A Dangerous Meeting [APCY-8112]"
FILE "King Diamond - Mercyful Fate A Dangerous Meeting [APCY-8112].flac" WAVE
TRACK 01 AUDIO
TITLE "Doomed By The Living Dead"
PERFORMER "King Diamond"
INDEX 00 00:00:00
INDEX 01 00:00:37
TRACK 02 AUDIO
TITLE "A Corpse Without Soul"
PERFORMER "King Diamond"
INDEX 01 05:08:54
TRACK 03 AUDIO
TITLE "Evil"
PERFORMER "King Diamond"
INDEX 01 12:04:69
TRACK 04 AUDIO
TITLE "Curse Of The Pharaohs"
PERFORMER "King Diamond"
INDEX 01 16:50:09
TRACK 05 AUDIO
TITLE "A Dangerous Meeting"
PERFORMER "King Diamond"
INDEX 01 20:48:04
TRACK 06 AUDIO
TITLE "Gypsy"
PERFORMER "King Diamond"
INDEX 01 25:59:02
TRACK 07 AUDIO
TITLE "Come To The Sabbath"
PERFORMER "King Diamond"
INDEX 01 29:07:14
TRACK 08 AUDIO
TITLE "The Candle"
PERFORMER "King Diamond"
INDEX 01 34:25:14
TRACK 09 AUDIO
TITLE "Charon"
PERFORMER "King Diamond"
INDEX 01 41:06:57
TRACK 10 AUDIO
TITLE "Halloween"
PERFORMER "King Diamond"
INDEX 01 45:23:27
TRACK 11 AUDIO
TITLE "No Presents For Christmas"
PERFORMER "King Diamond"
INDEX 01 49:37:52
TRACK 12 AUDIO
TITLE "Arrival"
PERFORMER "King Diamond"
INDEX 01 53:58:47
TRACK 13 AUDIO
TITLE "Abigail"
PERFORMER "King Diamond"
INDEX 01 59:27:12
TRACK 14 AUDIO
TITLE "Welcome Home"
PERFORMER "King Diamond"
INDEX 01 64:18:22
TRACK 15 AUDIO
TITLE "Sleepless Nights"
PERFORMER "King Diamond"
INDEX 01 68:54:59
TRACK 16 AUDIO
TITLE "Eye Of The Witch"
PERFORMER "King Diamond"
INDEX 01 73:58:69


"Лог"
Exact Audio Copy V0.99 prebeta 5 from 4. May 2009

EAC extraction logfile from 31. March 2010, 10:07

King Diamond / Mercyful Fate / A Dangerous Meeting [APCY-8112]

Used drive : ASUS DRW-2014S1T Adapter: 1 ID: 1

Read mode : Secure
Utilize accurate stream : Yes
Defeat audio cache : Yes
Make use of C2 pointers : No

Read offset correction : 6
Overread into Lead-In and Lead-Out : No
Fill up missing offset samples with silence : Yes
Delete leading and trailing silent blocks : No
Null samples used in CRC calculations : Yes
Used interface : Installed external ASPI interface

Used output format : User Defined Encoder
Selected bitrate : 128 kBit/s
Quality : High
Add ID3 tag : No
Command line compressor : C:\Program Files\Exact Audio Copy\Flac\flac.exe
Additional command line options : -8 -V -T "artist=%a" -T "title=%t" -T "album=%g" -T "date=%y" -T "tracknumber=%n" -T "genre=%m" -T "comment=EAC 0.9beta4 / FLAC 1.1.0 q6" %s


TOC of the extracted CD

Track | Start | Length | Start sector | End sector
---------------------------------------------------------
1 | 0:00.37 | 5:08.17 | 37 | 23153
2 | 5:08.54 | 6:56.15 | 23154 | 54368
3 | 12:04.69 | 4:45.15 | 54369 | 75758
4 | 16:50.09 | 3:57.70 | 75759 | 93603
5 | 20:48.04 | 5:10.73 | 93604 | 116926
6 | 25:59.02 | 3:08.12 | 116927 | 131038
7 | 29:07.14 | 5:18.00 | 131039 | 154888
8 | 34:25.14 | 6:41.43 | 154889 | 185006
9 | 41:06.57 | 4:16.45 | 185007 | 204251
10 | 45:23.27 | 4:14.25 | 204252 | 223326
11 | 49:37.52 | 4:20.70 | 223327 | 242896
12 | 53:58.47 | 5:28.40 | 242897 | 267536
13 | 59:27.12 | 4:51.10 | 267537 | 289371
14 | 64:18.22 | 4:36.37 | 289372 | 310108
15 | 68:54.59 | 5:04.10 | 310109 | 332918
16 | 73:58.69 | 3:48.73 | 332919 | 350091


Range status and errors

Selected range

Filename Y:\Музыка\King Diamond\1992 A Dangerous Meeting\King Diamond - Mercyful Fate A Dangerous Meeting [APCY-8112].wav

Peak level 100.0 %
Range quality 100.0 %
Copy CRC DF388E07
Copy OK

No errors occurred

End of status report


Состав:

Megaupload
Фото

_________________
Витасу до Даймонда как Алсу до Руссоса | При переразмещении - спрашивать разрешение!!


Top
 Profile  
 
 
PostPosted: 02 Apr 2010 
Metal Collector
User avatar
Joined: 16 Nov 2008
Posts: 1278
Lоcаtion: Химки
Age: 36
Name: Андрей
Облога от Маршалла дико радует, заберу и этот в коллекцию! :true:


Top
 Profile E-mail  
 
 
PostPosted: 02 Apr 2010 
Зарегился вот...
Joined: 28 Mar 2010
Posts: 3
Lоcаtion: с левого
Name: Фокс
Спасибо, iezuit aka ikebana :thanx: :meloman:


Top
 Profile E-mail  
 
 
PostPosted: 02 Apr 2010 
ыыыы
User avatar
Joined: 17 May 2009
Posts: 952
Lоcаtion: Пушкино, МО
Age: 41
Name: Дмитрий
:true:

_________________
Витасу до Даймонда как Алсу до Руссоса | При переразмещении - спрашивать разрешение!!


Top
 Profile  
 
Display posts from previous:  Sort by  
Post new topic Reply to topic  [ 4 posts ] 

All times are UTC + 3 hours


Who is online

Users browsing this forum: No registered users and 1 guest


You cannot post new topics in this forum
You cannot reply to topics in this forum
You cannot edit your posts in this forum
You cannot delete your posts in this forum
You cannot post attachments in this forum

Search for:
Яндекс.Метрика
Powered by phpBB © 2000, 2002, 2005, 2007 phpBB Group