\m/ 80's metal \m/

Информационно-аналитический форум "80 см пыли" (In Search We Trust) "У нас никто никуда не спешит"
Me For You - http://me-4u.com
It is currently 18 Sep 2019

All times are UTC + 3 hours

Spoiler
Chat - temporary registration for foreign users (please leave your application here)







Post new topic Reply to topic  [ 7 posts ] 
Author Message
 
PostPosted: 24 Mar 2010 
ыыыы
User avatar
Joined: 17 May 2009
Posts: 952
Lоcаtion: Пушкино, МО
Age: 40
Name: Дмитрий
Image

Жанр: Heavy Metal
Происхождение исполнителя: Дания
Год издания: 1988
Год издания данного носителя: 1988
Страна-производитель носителя: Япония
Аудио кодек: FLAC
Тип рипа: image+.cue
Битрейт аудио: lossless
Продолжительность: 43:18
Рип: Собственный
Лейбл: ROADRUNNER/SMS
Каталоговый номер: MP32-5327
Матрица: MP32-5327-A1E 11 (JVC)

Image Image Image

Треклист:
1. Out From the Asylum 01:45
2. Welcome Home 04:37
3. The Invisible Guests 05:04
4. Tea 05:15
5. Mother's Getting Weaker 04:02
6. Bye, Bye Missy 05:09
7. A Broken Spell 04:08
8. The Accusation Chair 04:21
9. "Them" 01:57
10. Twilight Symphony 04:09
11. Coming Home~Phone Call 02:50

"Куй"
REM GENRE "Hard Rock"
REM DATE 1988
REM DISCID 7B0A260B
REM COMMENT "ExactAudioCopy v0.99pb5"
CATALOG 0000000000000
PERFORMER "King Diamond"
TITLE "Them [MP32-5327]"
FILE "King Diamond - Them [MP32-5327].flac" WAVE
TRACK 01 AUDIO
TITLE "Out From The Asylum"
PERFORMER "King Diamond"
INDEX 00 00:00:00
INDEX 01 00:00:37
TRACK 02 AUDIO
TITLE "Welcome Home"
PERFORMER "King Diamond"
INDEX 01 01:45:65
TRACK 03 AUDIO
TITLE "The Invisible Guests"
PERFORMER "King Diamond"
INDEX 00 06:21:24
INDEX 01 06:22:30
TRACK 04 AUDIO
TITLE "Tea"
PERFORMER "King Diamond"
INDEX 00 11:25:35
INDEX 01 11:26:60
TRACK 05 AUDIO
TITLE "Mother's Getting Weaker"
PERFORMER "King Diamond"
INDEX 00 16:40:14
INDEX 01 16:41:62
TRACK 06 AUDIO
TITLE "Bye,Bye,Missy"
PERFORMER "King Diamond"
INDEX 00 20:42:31
INDEX 01 20:44:10
TRACK 07 AUDIO
TITLE "A Broken Spell"
PERFORMER "King Diamond"
INDEX 00 25:50:55
INDEX 01 25:52:52
TRACK 08 AUDIO
TITLE "The Accusation Chair"
PERFORMER "King Diamond"
INDEX 00 30:00:09
INDEX 01 30:00:62
TRACK 09 AUDIO
TITLE "'Them'"
PERFORMER "King Diamond"
INDEX 00 34:20:61
INDEX 01 34:22:12
TRACK 10 AUDIO
TITLE "Twilight Symphony"
PERFORMER "King Diamond"
INDEX 00 36:17:38
INDEX 01 36:19:12
TRACK 11 AUDIO
TITLE "Coming Home~Phone Call"
PERFORMER "King Diamond"
INDEX 00 40:27:13
INDEX 01 40:28:30


"Лог"
Exact Audio Copy V0.99 prebeta 5 from 4. May 2009

Отчёт EAC об извлечении, выполненном 25. февраля 2010, 20:01

King Diamond / Them [MP32-5327]

Дисковод: ASUS DRW-2014S1 Adapter: 1 ID: 0

Режим чтения : Достоверность
Использование точного потока : Да
Отключение кэша аудио : Да
Использование указателей C2 : Нет

Коррекция смещения при чтении : 6
Способность читать области Lead-in и Lead-out : Нет
Заполнение пропущенных сэмплов тишиной : Да
Удаление блоков с тишиной в начале и конце : Нет
При вычислениях CRC использовались нулевые сэмплы : Да
Интерфейс : Установленный внешний ASPI-интерфейс

Выходной формат : Внутренние WAV-операции
Формат сэмплов : 44.100 Гц; 16 бит; стерео


TOC извлечённого CD

Трек | Старт | Длительность | Начальный сектор | Конечный сектор
---------------------------------------------------------------------
1 | 0:00.37 | 1:45.28 | 37 | 7939
2 | 1:45.65 | 4:36.40 | 7940 | 28679
3 | 6:22.30 | 5:04.30 | 28680 | 51509
4 | 11:26.60 | 5:15.02 | 51510 | 75136
5 | 16:41.62 | 4:02.23 | 75137 | 93309
6 | 20:44.10 | 5:08.42 | 93310 | 116451
7 | 25:52.52 | 4:08.10 | 116452 | 135061
8 | 30:00.62 | 4:21.25 | 135062 | 154661
9 | 34:22.12 | 1:57.00 | 154662 | 163436
10 | 36:19.12 | 4:09.18 | 163437 | 182129
11 | 40:28.30 | 2:50.10 | 182130 | 194889


Характеристики диапазона извлечения и сообщения об ошибках

Выбранный диапазон

Имя файла Y:\Музыка\King Diamond\1988 Them\King Diamond - Them [MP32-5327].wav

Пиковый уровень 100.0 %
Качество диапазона 100.0 %
CRC копии F55FE97E
Копирование... OK

Ошибок не произошло


AccurateRip: сводка

Трек 1 нет в базе данных
Трек 2 нет в базе данных
Трек 3 нет в базе данных
Трек 4 нет в базе данных
Трек 5 нет в базе данных
Трек 6 нет в базе данных
Трек 7 нет в базе данных
Трек 8 нет в базе данных
Трек 9 нет в базе данных
Трек 10 нет в базе данных
Трек 11 нет в базе данных

Ни одного трека нет в базе AccurateRip

Конец отчёта


Состав:
Andy La Rocque: Guitar
Pete Blakk: Guitar
King Diamond: Vocals
Hal Patino: Bass
Mikkey Dee: Drums

Megaupload

#############
В куе поменяйте wav на flac пжалста!
:fingal:

_________________
Витасу до Даймонда как Алсу до Руссоса | При переразмещении - спрашивать разрешение!!


Last edited by iezuit on 07 Aug 2010, edited 3 times in total.

Top
 Profile  
 
 
PostPosted: 24 Mar 2010 
Хиппей (support team)
User avatar
Joined: 30 Jul 2007
Posts: 114376
Lоcаtion: Киев (Kyiv, UA)
Age: 46
Name: Andrey
Спасибо! :meloman:

_________________


Top
 Profile E-mail  
 
 
PostPosted: 04 Apr 2010 
ыыыы
User avatar
Joined: 17 May 2009
Posts: 952
Lоcаtion: Пушкино, МО
Age: 40
Name: Дмитрий
Фото переиздания 1991 г.

Image Image Image

_________________
Витасу до Даймонда как Алсу до Руссоса | При переразмещении - спрашивать разрешение!!


Top
 Profile  
 
 
PostPosted: 04 Aug 2010 
Зарегился вот...
Joined: 02 Aug 2010
Posts: 6
Lоcаtion: Пермь
Name: Роман
Переиздание 1991 г. по звуку отличается от 1988 г. ???


Top
 Profile E-mail  
 
 
PostPosted: 04 Aug 2010 
Motörheadache
User avatar
Joined: 04 Feb 2010
Posts: 1294
Lоcаtion: Впереди- горы,позади-степи
Age: 46
Name: Александр
Хех....а вот почему-то меньше всего из золотого наследия сие творение нравилось ..... :vic: :vic:
Дмитрию -респект полюбэ !! :true:

_________________
Eine Nation, Ein Land, Eine Schnaps!

Наш священный долг:защищать Родину,и соблюдать правила личной гигиены....!


Top
 Profile E-mail  
 
 
PostPosted: 06 Aug 2010 
Труъ
User avatar
Joined: 14 Jul 2010
Posts: 104
Lоcаtion: Украина, Донецк
Age: 34
Name: Санёк
Несмотря на сверхпопулярность этой пластинки, мне она тоже не пришлась по вкусу. Равно как и Conspiracy. Долгое время пытался впихнуть их обоих в мозг насильно, но не удалось. До сих пор любимое творение это Abigail.

_________________
Rock 'N' Roll is the only thing that keeps me from breaking apart (c)


Top
 Profile E-mail  
 
 
PostPosted: 07 Aug 2010 
ыыыы
User avatar
Joined: 17 May 2009
Posts: 952
Lоcаtion: Пушкино, МО
Age: 40
Name: Дмитрий
Добавил фотку диска- смотреть в теле основного сообщения :umnik:

_________________
Витасу до Даймонда как Алсу до Руссоса | При переразмещении - спрашивать разрешение!!


Top
 Profile  
 
Display posts from previous:  Sort by  
Post new topic Reply to topic  [ 7 posts ] 

All times are UTC + 3 hours


Who is online

Users browsing this forum: No registered users and 1 guest


You cannot post new topics in this forum
You cannot reply to topics in this forum
You cannot edit your posts in this forum
You cannot delete your posts in this forum
You cannot post attachments in this forum

Search for:
Яндекс.Метрика
Powered by phpBB © 2000, 2002, 2005, 2007 phpBB Group