\m/ 80's metal \m/

Информационно-аналитический форум "80 см пыли" (In Search We Trust) "У нас никто никуда не спешит"
Me For You - http://me-4u.com
It is currently 13 Dec 2019

All times are UTC + 3 hours

Spoiler
Chat - temporary registration for foreign users (please leave your application here)







Post new topic Reply to topic  [ 1 post ] 
Author Message
 
PostPosted: 24 Mar 2010 
ыыыы
User avatar
Joined: 17 May 2009
Posts: 952
Lоcаtion: Пушкино, МО
Age: 41
Name: Дмитрий
Image


Жанр: Heavy Metal
Происхождение исполнителя: Дания
Год издания: 1986
Год издания данного носителя: 1990
Страна-производитель носителя: Япония
Аудио кодек: FLAC
Тип рипа: image+.cue
Битрейт аудио: lossless
Продолжительность: 37:48
Рип: Собственный
Лейбл: ROADRUNNER/F.E.M.S
Каталоговый номер: APCY-8029
Матрица: APCY-8029-A1M 22 V (JVC)

Треклист:
1. The Candle 06:41
2. The Jonah 05:16
3. The Portrait 05:08
4. Dressed in White 03:08
5. Charon 04:17
6. Lurking in the Dark 03:37
7. Halloween 04:14
8. Voices from the Past 01:32
9. Haunted 03:57

"Куй"
REM GENRE "Heavy Metal"
REM DATE 1986
REM DISCID 6B08DC09
REM COMMENT "ExactAudioCopy v0.99pb5"
PERFORMER "King Diamond"
TITLE "Fatal Portrait [APCY-8029]"
FILE "King Diamond - Fatal Portrait [APCY-8029].flac" WAVE
TRACK 01 AUDIO
TITLE "The Candle"
PERFORMER "King Diamond"
INDEX 00 00:00:00
INDEX 01 00:00:37
TRACK 02 AUDIO
TITLE "The Jonah"
PERFORMER "King Diamond"
INDEX 01 06:41:17
TRACK 03 AUDIO
TITLE "The Portrait"
PERFORMER "King Diamond"
INDEX 01 11:57:17
TRACK 04 AUDIO
TITLE "Dressed in White"
PERFORMER "King Diamond"
INDEX 01 17:05:47
TRACK 05 AUDIO
TITLE "Charon"
PERFORMER "King Diamond"
INDEX 01 20:13:62
TRACK 06 AUDIO
TITLE "Lurking in the Dark"
PERFORMER "King Diamond"
INDEX 00 24:29:31
INDEX 01 24:30:60
TRACK 07 AUDIO
TITLE "Halloween"
PERFORMER "King Diamond"
INDEX 00 28:05:26
INDEX 01 28:06:47
TRACK 08 AUDIO
TITLE "Voices from the Past"
PERFORMER "King Diamond"
INDEX 01 32:20:42
TRACK 09 AUDIO
TITLE "Haunted"
PERFORMER "King Diamond"
INDEX 01 33:52:15


"Лог"
Exact Audio Copy V0.99 prebeta 5 from 4. May 2009

EAC extraction logfile from 24. March 2010, 15:27

King Diamond / Fatal Portrait [APCY-8029]

Used drive : ASUS DRW-2014S1T Adapter: 1 ID: 1

Read mode : Secure
Utilize accurate stream : Yes
Defeat audio cache : Yes
Make use of C2 pointers : No

Read offset correction : 6
Overread into Lead-In and Lead-Out : No
Fill up missing offset samples with silence : Yes
Delete leading and trailing silent blocks : No
Null samples used in CRC calculations : Yes
Used interface : Installed external ASPI interface

Used output format : User Defined Encoder
Selected bitrate : 128 kBit/s
Quality : High
Add ID3 tag : No
Command line compressor : C:\Program Files\Exact Audio Copy\FLAC\FLAC.EXE
Additional command line options : -8 -V -T "ARTIST=%a" -T "TITLE=%t" -T "ALBUM=%g" -T "DATE=%y" -T "TRACKNUMBER=%n" -T "GENRE=%m" -T "COMMENT=%e" %s -o %d


TOC of the extracted CD

Track | Start | Length | Start sector | End sector
---------------------------------------------------------
1 | 0:00.37 | 6:40.55 | 37 | 30091
2 | 6:41.17 | 5:16.00 | 30092 | 53791
3 | 11:57.17 | 5:08.30 | 53792 | 76921
4 | 17:05.47 | 3:08.15 | 76922 | 91036
5 | 20:13.62 | 4:16.73 | 91037 | 110309
6 | 24:30.60 | 3:35.62 | 110310 | 126496
7 | 28:06.47 | 4:13.70 | 126497 | 145541
8 | 32:20.42 | 1:31.48 | 145542 | 152414
9 | 33:52.15 | 3:56.40 | 152415 | 170154


Range status and errors

Selected range

Filename Y:\Музыка\King Diamond\1986 Fatal Portrait\King Diamond - Fatal Portrait [APCY-8029].wav

Peak level 82.6 %
Range quality 100.0 %
Copy CRC 3F2AF257
Copy OK

No errors occurred

End of status report


Состав:
King Diamond: Vocals
Michael Denner: Guitar
Andy LaRoque: Guitar
Timi Hansen: Bass
Mikkey Dee: Drums

Narod
Фото

_________________
Витасу до Даймонда как Алсу до Руссоса | При переразмещении - спрашивать разрешение!!


Top
 Profile  
 
Display posts from previous:  Sort by  
Post new topic Reply to topic  [ 1 post ] 

All times are UTC + 3 hours


Who is online

Users browsing this forum: No registered users and 2 guests


You cannot post new topics in this forum
You cannot reply to topics in this forum
You cannot edit your posts in this forum
You cannot delete your posts in this forum
You cannot post attachments in this forum

Search for:
Яндекс.Метрика
Powered by phpBB © 2000, 2002, 2005, 2007 phpBB Group