\m/ 80's metal \m/

Информационно-аналитический форум "80 см пыли" (In Search We Trust) "У нас никто никуда не спешит"
Me For You - http://me-4u.com
It is currently 23 Mar 2019

All times are UTC + 3 hours

Spoiler
Chat - temporary registration for foreign users (please leave your application here)







Post new topic Reply to topic  [ 13 posts ] 
Author Message
 
PostPosted: 24 Mar 2010 
ыыыы
User avatar
Joined: 17 May 2009
Posts: 952
Lоcаtion: Пушкино, МО
Age: 40
Name: Дмитрий
Image


Жанр: Heavy Metal
Происхождение исполнителя: Япония
Год издания: 1986
Год издания данного носителя: 1986
Страна-производитель носителя: Япония
Аудио кодек: FLAC
Тип рипа: image+.cue
Битрейт аудио: lossless
Продолжительность: 33:08
Рип: Собственный
Лейбл: POLYDOR
Каталоговый номер: P33P-20070
Матрица: P33P-20070-U2E121 (JVC?)

Треклист:
1. When We Rock 04:21
2. Love Taker 03:19
3. East Meets West 04:09
4. Telepathy 03:08
5. Victory Of Dreams 03:08
6. Hands Up 03:09
7. One Last Chance 04:01
8. Restless Heart 04:40
9. Desert Sunset 03:13

"Куй"
REM GENRE Rock
REM DATE 1986
REM DISCID 8207C409
REM COMMENT "ExactAudioCopy v0.99pb5"
PERFORMER "Kuni"
TITLE "Masque [P33P-20070]"
FILE "Kuni - Masque [P33P-20070].flac" WAVE
TRACK 01 AUDIO
TITLE "When We Rock"
PERFORMER "Kuni"
INDEX 00 00:00:00
INDEX 01 00:00:37
TRACK 02 AUDIO
TITLE "Love Taker"
PERFORMER "Kuni"
INDEX 01 04:21:52
TRACK 03 AUDIO
TITLE "East Meets West"
PERFORMER "Kuni"
INDEX 01 07:40:22
TRACK 04 AUDIO
TITLE "Telepathy"
PERFORMER "Kuni"
INDEX 01 11:49:12
TRACK 05 AUDIO
TITLE "Victory Of Dreams"
PERFORMER "Kuni"
INDEX 01 14:57:10
TRACK 06 AUDIO
TITLE "Hands Up"
PERFORMER "Kuni"
INDEX 01 18:05:25
TRACK 07 AUDIO
TITLE "One Last Chance"
PERFORMER "Kuni"
INDEX 01 21:14:15
TRACK 08 AUDIO
TITLE "Restless Heart"
PERFORMER "Kuni"
INDEX 01 25:15:30
TRACK 09 AUDIO
TITLE "Desert Sunset"
PERFORMER "Kuni"
INDEX 01 29:55:40


"Лог"
Exact Audio Copy V0.99 prebeta 5 from 4. May 2009

EAC extraction logfile from 24. March 2010, 11:46

Kuni / Masque [P33P-20070]

Used drive : ASUS DRW-2014S1T Adapter: 1 ID: 1

Read mode : Secure
Utilize accurate stream : Yes
Defeat audio cache : Yes
Make use of C2 pointers : No

Read offset correction : 6
Overread into Lead-In and Lead-Out : No
Fill up missing offset samples with silence : Yes
Delete leading and trailing silent blocks : No
Null samples used in CRC calculations : Yes
Used interface : Installed external ASPI interface

Used output format : User Defined Encoder
Selected bitrate : 128 kBit/s
Quality : High
Add ID3 tag : No
Command line compressor : C:\Program Files\Exact Audio Copy\FLAC\FLAC.EXE
Additional command line options : -8 -V -T "ARTIST=%a" -T "TITLE=%t" -T "ALBUM=%g" -T "DATE=%y" -T "TRACKNUMBER=%n" -T "GENRE=%m" -T "COMMENT=%e" %s -o %d


TOC of the extracted CD

Track | Start | Length | Start sector | End sector
---------------------------------------------------------
1 | 0:00.37 | 4:21.15 | 37 | 19626
2 | 4:21.52 | 3:18.45 | 19627 | 34521
3 | 7:40.22 | 4:08.65 | 34522 | 53186
4 | 11:49.12 | 3:07.73 | 53187 | 67284
5 | 14:57.10 | 3:08.15 | 67285 | 81399
6 | 18:05.25 | 3:08.65 | 81400 | 95564
7 | 21:14.15 | 4:01.15 | 95565 | 113654
8 | 25:15.30 | 4:40.10 | 113655 | 134664
9 | 29:55.40 | 3:13.05 | 134665 | 149144


Range status and errors

Selected range

Filename Y:\Музыка\Kuni\1986 Masque\Kuni - Masque [P33P-20070].wav

Peak level 86.2 %
Range quality 100.0 %
Copy CRC 5C8BB12A
Copy OK

No errors occurred

End of status report


Состав:
Kuni: Guitars
Neil Turbin: Vocals (Anthrax)
Kevin Dubrow: Vocals (Quiet Riot)
Chuck Wright: Bass (Quiet Riot)
Frankie Banali: Drums (Quiet Riot)
Mark Edwards: Drums (Steeler)
Billy Sheehan: Bass (Talas)
Kal Swan: Vocals (Lion)

Megaupload
Фото

_________________
Витасу до Даймонда как Алсу до Руссоса | При переразмещении - спрашивать разрешение!!


Last edited by iezuit on 24 Mar 2010, edited 1 time in total.

Top
 Profile  
 
 
PostPosted: 24 Mar 2010 
Хиппей (support team)
User avatar
Joined: 30 Jul 2007
Posts: 111121
Lоcаtion: Киев (Kyiv, UA)
Age: 45
Name: Andrey
Спасибо, Дим! :thanx:
Кажись самый толковый альбом Кунилингуса :scratch:

_________________


Top
 Profile E-mail  
 
 
PostPosted: 24 Mar 2010 
дядя Миша
User avatar
Joined: 17 Oct 2008
Posts: 3094
Lоcаtion: USSR
Age: 56
Name: Khy
вот это вещь!!!!!!!!! У него самый толковый (по мне) 2003 , там и Матсумото , и вооще составчик тот ещё !!!!!


Top
 Profile  
 
 
PostPosted: 24 Mar 2010 
ыыыы
User avatar
Joined: 17 May 2009
Posts: 952
Lоcаtion: Пушкино, МО
Age: 40
Name: Дмитрий
А кто-нибудь знает имя этого..товарища с говорящей фамилией? :blum: :nunu:
Quote:
Кажись самый толковый альбом
Есть мнение, и не только моё, что таки 88 года :dance:

_________________
Витасу до Даймонда как Алсу до Руссоса | При переразмещении - спрашивать разрешение!!


Top
 Profile  
 
 
PostPosted: 24 Mar 2010 
Хиппей (support team)
User avatar
Joined: 30 Jul 2007
Posts: 111121
Lоcаtion: Киев (Kyiv, UA)
Age: 45
Name: Andrey
iezuit wrote:
А кто-нибудь знает имя этого..товарища с говорящей фамилией?

:vic:

_________________


Top
 Profile E-mail  
 
 
PostPosted: 25 Mar 2010 
Power Metal Maniac
User avatar
Joined: 09 Aug 2008
Posts: 6643
Lоcаtion: Москва
Age: 41
Name: Егор
:thanx: не забыть скачать

_________________
Long Live Metal!


Top
 Profile  
 
 
PostPosted: 26 Mar 2010 
HAMMER
User avatar
Joined: 16 May 2009
Posts: 5471
Lоcаtion: Тверь
Age: 46
Name: Александр
Вот случайно нашел, как зовут этого товарища: Kuni Takeuchi 20.01.64 Tokyo.


Top
 Profile E-mail  
 
 
PostPosted: 26 Mar 2010 
ыыыы
User avatar
Joined: 17 May 2009
Posts: 952
Lоcаtion: Пушкино, МО
Age: 40
Name: Дмитрий
Quote:
Вот случайно нашел, как зовут этого товарища: Kuni Takeuchi

Не забыть )) а то прилюдно спросили- что это я такое слушаю, ну я и ляпнул. А кругом девушки, женщины и прочие нервные личности :nunu:

_________________
Витасу до Даймонда как Алсу до Руссоса | При переразмещении - спрашивать разрешение!!


Top
 Profile  
 
 
PostPosted: 29 Mar 2010 
А может смените мне статус?..
User avatar
Joined: 24 Dec 2008
Posts: 632
Age: 45
Name: Дмитрий
Спасибо! Послушал, ничего так...


Top
 Profile  
 
 
PostPosted: 03 Jun 2015 
Доктор энтомологии
User avatar
Joined: 22 Jan 2009
Posts: 9642
Lоcаtion: Даугавпилс
Age: 44
Name: Алексей


Top
 Profile  
 
 
PostPosted: 04 Jun 2015 
Я набрал 1000 сообщений!
Joined: 24 Oct 2009
Posts: 2183
Lоcаtion: Оренбург
Age: 55
Name: Юра
Дык этж Сотто на вокале. :scratch:

_________________
:dash: I am happy!


Top
 Profile E-mail  
 
 
PostPosted: 06 Jun 2015 
Alive Again
User avatar
Joined: 17 Dec 2008
Posts: 4747
Lоcаtion: Курск Воронеж Оскол
Age: 44
Name: Дмитрий
Дык этж Сотто на вокале. :scratch:

Он самый, вот на треккере лежит Kuni - Lookin' For Action, ещё и Террана там имеется.


Top
 Profile E-mail  
 
 
PostPosted: 06 Jun 2015 
Я набрал 1000 сообщений!
Joined: 21 Nov 2009
Posts: 1414
Lоcаtion: praga
Age: 48
Name: Сергей
Дык этж Сотто на вокале. :scratch:

Он самый, вот на треккере лежит Kuni - Lookin' For Action, ещё и Террана там имеется.

Так 88 год лучше дебютника в разы.На дебютнике 86 года только разве песня Restless Heart с вокалистом из Lion катит и усё.Куча нелепых инструменталок с чисто японским шредом :beee: . :pardon:


Top
 Profile E-mail  
 
Display posts from previous:  Sort by  
Post new topic Reply to topic  [ 13 posts ] 

All times are UTC + 3 hours


Who is online

Users browsing this forum: No registered users and 1 guest


You cannot post new topics in this forum
You cannot reply to topics in this forum
You cannot edit your posts in this forum
You cannot delete your posts in this forum
You cannot post attachments in this forum

Search for:
Яндекс.Метрика
Powered by phpBB © 2000, 2002, 2005, 2007 phpBB Group