\m/ 80's metal \m/

Информационно-аналитический форум "80 см пыли" (In Search We Trust) "У нас никто никуда не спешит"
Me For You - http://me-4u.com
It is currently 13 Dec 2019

All times are UTC + 3 hours

Spoiler
Chat - temporary registration for foreign users (please leave your application here)







Post new topic Reply to topic  [ 9 posts ] 
Author Message
 
PostPosted: 23 Mar 2010 
ыыыы
User avatar
Joined: 17 May 2009
Posts: 952
Lоcаtion: Пушкино, МО
Age: 41
Name: Дмитрий
Image


Жанр: Heavy Metal
Происхождение исполнителя: Дания
Год издания: 1987
Год издания данного носителя: 1990
Страна-производитель носителя: Япония
Аудио кодек: FLAC
Тип рипа: image+.cue
Битрейт аудио: lossless
Продолжительность: 40:26
Рип: Собственный
Лейбл: ROADRUNNER/F.E.M.S
Каталоговый номер: APCY-8030
Матрица: APCY-8030-A1K 13 V (JVC)

Треклист:
1. Funeral 01:30
2. Arrival 05:26
3. A Mansion In Darkness 04:34
4. The Family Ghost 04:06
5. The 7th Day Of July 1777 04:52
6. Omens 03:57
7. The Possession 03:29
8. Abigail 04:52
9. Black Horsemen 07:40

"Куй"
REM GENRE "Heavy Metal"
REM DATE 1987
REM DISCID 87097A09
REM COMMENT "ExactAudioCopy v0.99pb5"
CATALOG 0000000000000
PERFORMER "King Diamond"
TITLE "Abigail [APCY-8030]"
FILE "King Diamond - Abigail [APCY-8030].flac" WAVE
TRACK 01 AUDIO
TITLE "Funeral"
PERFORMER "King Diamond"
INDEX 00 00:00:00
INDEX 01 00:00:37
TRACK 02 AUDIO
TITLE "Arrival"
PERFORMER "King Diamond"
INDEX 01 01:30:52
TRACK 03 AUDIO
TITLE "A Mansion In Darkness"
PERFORMER "King Diamond"
INDEX 01 06:57:07
TRACK 04 AUDIO
TITLE "The Family Ghost"
PERFORMER "King Diamond"
INDEX 00 11:30:71
INDEX 01 11:31:37
TRACK 05 AUDIO
TITLE "The 7th Day Of July 1777"
PERFORMER "King Diamond"
INDEX 01 15:37:20
TRACK 06 AUDIO
TITLE "Omens"
PERFORMER "King Diamond"
INDEX 01 20:29:02
TRACK 07 AUDIO
TITLE "The Possession"
PERFORMER "King Diamond"
INDEX 01 24:25:60
TRACK 08 AUDIO
TITLE "Abigail"
PERFORMER "King Diamond"
INDEX 00 27:53:34
INDEX 01 27:54:25
TRACK 09 AUDIO
TITLE "Black Horsemen"
PERFORMER "King Diamond"
INDEX 01 32:46:40


"Лог"
Exact Audio Copy V0.99 prebeta 5 from 4. May 2009

Отчёт EAC об извлечении, выполненном 24. февраля 2010, 21:41

King Diamond / Abigail [APCY-8030]

Дисковод: ASUS DRW-2014S1 Adapter: 1 ID: 0

Режим чтения : Достоверность
Использование точного потока : Да
Отключение кэша аудио : Да
Использование указателей C2 : Нет

Коррекция смещения при чтении : 6
Способность читать области Lead-in и Lead-out : Нет
Заполнение пропущенных сэмплов тишиной : Да
Удаление блоков с тишиной в начале и конце : Нет
При вычислениях CRC использовались нулевые сэмплы : Да
Интерфейс : Установленный внешний ASPI-интерфейс

Выходной формат : Пользовательский кодировщик
Выбранный битрейт : 128 kBit/s
Качество : Высокий
Добавление ID3-тэга : Нет
Утилита сжатия : C:\Program Files\Exact Audio Copy\Flac\flac.exe
Дополнительные параметры : -6 -V -T "artist=%a" -T "title=%t" -T "album=%g" -T "date=%y" -T "tracknumber=%n" -T "genre=%m" -T "comment=EAC 0.99beta5 / FLAC 1.1.0 q6" %s


TOC извлечённого CD

Трек | Старт | Длительность | Начальный сектор | Конечный сектор
---------------------------------------------------------------------
1 | 0:00.37 | 1:30.15 | 37 | 6801
2 | 1:30.52 | 5:26.30 | 6802 | 31281
3 | 6:57.07 | 4:34.30 | 31282 | 51861
4 | 11:31.37 | 4:05.58 | 51862 | 70294
5 | 15:37.20 | 4:51.57 | 70295 | 92176
6 | 20:29.02 | 3:56.58 | 92177 | 109934
7 | 24:25.60 | 3:28.40 | 109935 | 125574
8 | 27:54.25 | 4:52.15 | 125575 | 147489
9 | 32:46.40 | 7:40.07 | 147490 | 181996


Характеристики диапазона извлечения и сообщения об ошибках

Выбранный диапазон

Имя файла Y:\Музыка\King Diamond\1987 Abigail\King Diamond - Abigail [APCY-8030].wav

Пиковый уровень 100.0 %
Качество диапазона 100.0 %
CRC копии 085690BE
Копирование... OK

Ошибок не произошло


AccurateRip: сводка

Трек 1 нет в базе данных
Трек 2 нет в базе данных
Трек 3 нет в базе данных
Трек 4 нет в базе данных
Трек 5 нет в базе данных
Трек 6 нет в базе данных
Трек 7 нет в базе данных
Трек 8 нет в базе данных
Трек 9 нет в базе данных

Ни одного трека нет в базе AccurateRip

Конец отчёта


Состав:
Andy La Rocque : Guitar
Michael Denner : Guitar
King Diamond : Vocals
Timi Hansen : Bass
Mikkey Dee : Drums

Megaupload
Фото

#########
Фото взяты с сайта Photobucket.com у пользователя brutal.finds, за что ему ありがとう!!!

_________________
Витасу до Даймонда как Алсу до Руссоса | При переразмещении - спрашивать разрешение!!


Top
 Profile  
 
 
PostPosted: 23 Mar 2010 
Хиппей (support team)
User avatar
Joined: 30 Jul 2007
Posts: 116105
Lоcаtion: Киев (Kyiv, UA)
Age: 46
Name: Andrey
:true:

_________________


Top
 Profile E-mail  
 
 
PostPosted: 23 Mar 2010 
metallpaparazzy
User avatar
Joined: 20 Dec 2009
Posts: 674
Lоcаtion: Днепропетровск
Age: 44
Name: Геннадий
:true: любимый альбом! и считаю лучший!... вместе с "глазом"...
как-то попался мне ентот албум на балке у нас... переиздание на 25летие, дигипак, япошка... и денег не так, шоб много... пока к банкомату сбегал -- ускакали 7 всадников :dash: :fingal: :cry:
так и осталси он у меня на левандосе, :pardon: там ещо бонус двд...


Top
 Profile E-mail  
 
 
PostPosted: 23 Mar 2010 
хард н хэвщик (support team)
User avatar
Joined: 02 Jun 2008
Posts: 16881
Lоcаtion: Н.Новгород
Age: 32
Name: Артем
нонсенс, но мой старший брательник лет так 6 назад одинаково кайфовал от Rammstein , Король И Шут, King Diamond (друг принес на кассетке) и Whitesnake (а это уже я "заразил") :shok:


Top
 Profile  
 
 
PostPosted: 23 Mar 2010 
ыыыы
User avatar
Joined: 17 May 2009
Posts: 952
Lоcаtion: Пушкино, МО
Age: 41
Name: Дмитрий
Думаю, до 95 года включительно всего Даймонда на японии выложу, !The Dark Sides - уж больно это рар. Эспешалли фор 80s.takemetal.com :garmo:

_________________
Витасу до Даймонда как Алсу до Руссоса | При переразмещении - спрашивать разрешение!!


Top
 Profile  
 
 
PostPosted: 23 Mar 2010 
metallpaparazzy
User avatar
Joined: 20 Dec 2009
Posts: 674
Lоcаtion: Днепропетровск
Age: 44
Name: Геннадий
ну, у мну весь Король имееццо на лицухе (кроме 87 :pardon:), включая Мэрсифул фэйт (кроме 96 :cry: ). и Черная Роза тожэ эсть! :true:


Top
 Profile E-mail  
 
 
PostPosted: 24 Mar 2010 
ыыыы
User avatar
Joined: 17 May 2009
Posts: 952
Lоcаtion: Пушкино, МО
Age: 41
Name: Дмитрий
у меня даймонд и на америке есть :)
так не выкладывать? :fingal:

_________________
Витасу до Даймонда как Алсу до Руссоса | При переразмещении - спрашивать разрешение!!


Top
 Profile  
 
 
PostPosted: 24 Mar 2010 
5-speed satisfactor
User avatar
Joined: 16 Feb 2009
Posts: 3808
Lоcаtion: New York, USA
Age: 41
Name: Leonid
Чем японский отличен от мериканского? Есть "Tемные Стороны". В должки отпиши.

_________________
Death rules! Metal to all who oppose!


Last edited by metaleonid on 24 Mar 2010, edited 1 time in total.

Top
 Profile  
 
 
PostPosted: 24 Mar 2010 
ыыыы
User avatar
Joined: 17 May 2009
Posts: 952
Lоcаtion: Пушкино, МО
Age: 41
Name: Дмитрий
metaleonid
чем отличается- сказать не могу-аппаратуры нормальной нет.
Американец у меня такой- кат# RR34 9622 ROADRUNNER
на диске - RRD9622 Made in USA - ROADRACER
матрица SONOPRESS USA RR349622 + + 51806-01
Буклет и задник помечены как DDD а сам диск- как AAD. Видимо, полиграфия и диск- делались в разное время.
На заднике написано, что Made in USA и Manufactured in Germany :fingal:
Штрих-код- американский

_________________
Витасу до Даймонда как Алсу до Руссоса | При переразмещении - спрашивать разрешение!!


Top
 Profile  
 
Display posts from previous:  Sort by  
Post new topic Reply to topic  [ 9 posts ] 

All times are UTC + 3 hours


Who is online

Users browsing this forum: No registered users and 1 guest


You cannot post new topics in this forum
You cannot reply to topics in this forum
You cannot edit your posts in this forum
You cannot delete your posts in this forum
You cannot post attachments in this forum

Search for:
Яндекс.Метрика
cron
Powered by phpBB © 2000, 2002, 2005, 2007 phpBB Group