\m/ 80's metal \m/

Информационно-аналитический форум "80 см пыли" (In Search We Trust) "У нас никто никуда не спешит"
Me For You - http://me-4u.com
It is currently 10 Dec 2019

All times are UTC + 3 hours

Spoiler
Chat - temporary registration for foreign users (please leave your application here)







Post new topic Reply to topic  [ 9 posts ] 
Author Message
 
PostPosted: 14 Mar 2010 
Old Time Rock`n`Roll
User avatar
Joined: 23 Jun 2008
Posts: 3505
Lоcаtion: г.Ульяновск
Age: 41
Name: Константин
Killer Dwarfs – Dirty Weapons (1990)

Image

Year: 1990
Style: Hard Rock
Country: Canada
Format: APE + log + cue + scans & mp3-320
Size: 414 Mb + 147 Mb

Tracklist
01. Dirty Weapons (3:38)
02. Nothin' Gets Nothin' (3:26)
03. All That We Dream (4:30)
04. Doesn't Matter (4:39)
05. Last Laugh (3:33)
06. Comin' Through (3:39)
07. One Way Out (3:32)
08. Appeal (3:36)
09. Not Foolin' (3:52)
10. Want It Bad (4:36)
11. Method To The Madness (Bonus Track 4:08)
12. Give And Take (Bonus Track 3:50)
13. Look Around (Bonus Track 4:55)
14. G.T.Y. (Goodbye To Yesterday) (Bonus Track 4:13)
15. Cowboys And Conmen (Bonus Track 4:59)

TPT – 61:13

Line-Up
Darrell Millar - Drums, Backing Vocals
Mike Hall - Guitars, Backing Vocals
Ronald Mayer - Bass, Backing Vocals
Russell Graham - Lead Vocals

Album Credits:
Produced: Andy Johns
Engineered: Andy Johns
Mixed: Andy Johns
Mastered: Vlado Meller

Chart Position:
USA # 151

Log
Exact Audio Copy V0.99 prebeta 1 from 25. May 2007

EAC extraction logfile from 1. July 2007, 13:36

Killer Dwarfs / Dirty Weapons +5

Used drive : PLEXTOR CD-R PREMIUM Adapter: 1 ID: 0

Read mode : Secure
Utilize accurate stream : Yes
Defeat audio cache : Yes
Make use of C2 pointers : No

Read offset correction : 30
Overread into Lead-In and Lead-Out : Yes
Fill up missing offset samples with silence : Yes
Delete leading and trailing silent blocks : No
Used interface : Installed external ASPI interface

Used output format : User Defined Encoder
Selected bitrate : 32 kBit/s
Quality : High
Add ID3 tag : No
Command line compressor : C:\Archivos de programa\Exact Audio Copy\wapet.exe
Additional command line options : %d -t "Artist=%a" -t "Title=%t" -t "Album=%g" -t "Year=%y" -t "Track=%n" -t "Genre=%m" mac.exe %s %d -c3000


TOC of the extracted CD

Track | Start | Length | Start sector | End sector
---------------------------------------------------------
1 | 0:00.00 | 3:38.35 | 0 | 16384
2 | 3:38.35 | 3:26.42 | 16385 | 31876
3 | 7:05.02 | 4:30.28 | 31877 | 52154
4 | 11:35.30 | 4:39.05 | 52155 | 73084
5 | 16:14.35 | 3:33.55 | 73085 | 89114
6 | 19:48.15 | 3:39.00 | 89115 | 105539
7 | 23:27.15 | 3:32.72 | 105540 | 121511
8 | 27:00.12 | 3:36.18 | 121512 | 137729
9 | 30:36.30 | 3:52.12 | 137730 | 155141
10 | 34:28.42 | 4:36.08 | 155142 | 175849
11 | 39:04.50 | 4:08.52 | 175850 | 194501
12 | 43:13.27 | 3:50.40 | 194502 | 211791
13 | 47:03.67 | 4:55.48 | 211792 | 233964
14 | 51:59.40 | 4:13.37 | 233965 | 252976
15 | 56:13.02 | 4:59.03 | 252977 | 275404


Range status and errors

Selected range

Filename C:\RIPEOS EAC\Killer Dwarfs - Dirty Weapons +5.wav

Peak level 94.3 %
Range quality 100.0 %
Test CRC F672C309
Copy CRC F672C309
Copy OK


AccurateRip summary

Track 1 not present in database
Track 2 not present in database
Track 3 not present in database
Track 4 not present in database
Track 5 not present in database
Track 6 not present in database
Track 7 not present in database
Track 8 not present in database
Track 9 not present in database
Track 10 not present in database
Track 11 not present in database
Track 12 not present in database
Track 13 not present in database
Track 14 not present in database
Track 15 not present in database

No errors occurred

End of status report


Cue
REM GENRE "Hard Rock"
REM DATE 2000
REM DISCID CE0E580F
REM COMMENT "ExactAudioCopy v0.99pb1"
PERFORMER "Killer Dwarfs"
TITLE "Dirty Weapons +5"
FILE "Killer Dwarfs - Dirty Weapons +5.wav" WAVE
TRACK 01 AUDIO
TITLE "Dirty Weapons"
PERFORMER "Killer Dwarfs"
INDEX 01 00:00:00
TRACK 02 AUDIO
TITLE "Nothin' Gets Nothin'"
PERFORMER "Killer Dwarfs"
INDEX 01 03:38:35
TRACK 03 AUDIO
TITLE "All That We Dream"
PERFORMER "Killer Dwarfs"
INDEX 01 07:05:02
TRACK 04 AUDIO
TITLE "Doesn't Matter"
PERFORMER "Killer Dwarfs"
INDEX 01 11:35:30
TRACK 05 AUDIO
TITLE "Last Laugh"
PERFORMER "Killer Dwarfs"
INDEX 01 16:14:35
TRACK 06 AUDIO
TITLE "Comin' Through"
PERFORMER "Killer Dwarfs"
INDEX 01 19:48:15
TRACK 07 AUDIO
TITLE "One Way Out"
PERFORMER "Killer Dwarfs"
INDEX 01 23:27:15
TRACK 08 AUDIO
TITLE "Appeal"
PERFORMER "Killer Dwarfs"
INDEX 01 27:00:12
TRACK 09 AUDIO
TITLE "Not Foolin'"
PERFORMER "Killer Dwarfs"
INDEX 01 30:36:30
TRACK 10 AUDIO
TITLE "Want It Bad"
PERFORMER "Killer Dwarfs"
INDEX 01 34:28:42
TRACK 11 AUDIO
TITLE "Methods To Madness"
PERFORMER "Killer Dwarfs"
INDEX 01 39:04:50
TRACK 12 AUDIO
TITLE "Give And Take"
PERFORMER "Killer Dwarfs"
INDEX 00 43:12:70
INDEX 01 43:13:27
TRACK 13 AUDIO
TITLE "Look Around"
PERFORMER "Killer Dwarfs"
INDEX 00 47:03:65
INDEX 01 47:03:67
TRACK 14 AUDIO
TITLE "G.T.Y."
PERFORMER "Killer Dwarfs"
INDEX 00 51:59:37
INDEX 01 51:59:40
TRACK 15 AUDIO
TITLE "Cowboys And Conmen"
PERFORMER "Killer Dwarfs"
INDEX 00 56:12:62
INDEX 01 56:13:02


APE
narod-APE

mp3-320
megaupload-320

Релиз с WWR, автор рипа – Keykey
Переиздание от 2000 г. 4-го студийного (и возможно лучшего) альбома канадской рок-группы с 5-ю бонусами, правда сами бонусы достаточно странные – просто ряд композиций со следующего диска, никаких демок или концертных вещей. Спродюссировал альбом Энди Джонс (Gary Moore, Cinderella, Autograph, House Of Lords, Van Halen, L.A.Guns, Joe Satriani, Loudness)

Image


Top
 Profile  
 
 
PostPosted: 14 Mar 2010 
:meloman: :true:


Top
  
 
 
PostPosted: 14 Mar 2010 
Хиппей (support team)
User avatar
Joined: 30 Jul 2007
Posts: 116047
Lоcаtion: Киев (Kyiv, UA)
Age: 46
Name: Andrey
:thanx:

_________________


Top
 Profile E-mail  
 
 
PostPosted: 14 Mar 2010 
Old Time Rock`n`Roll
User avatar
Joined: 23 Jun 2008
Posts: 3505
Lоcаtion: г.Ульяновск
Age: 41
Name: Константин
Да ладно, все равно не скоро скачаешь))


Top
 Profile  
 
 
PostPosted: 14 Mar 2010 
Хиппей (support team)
User avatar
Joined: 30 Jul 2007
Posts: 116047
Lоcаtion: Киев (Kyiv, UA)
Age: 46
Name: Andrey
:blum:

Image

_________________


Top
 Profile E-mail  
 
 
PostPosted: 15 Mar 2010 
хард н хэвщик (support team)
User avatar
Joined: 02 Jun 2008
Posts: 16881
Lоcаtion: Н.Новгород
Age: 32
Name: Артем
а чего это у тебя серый фон ? :shok:


Top
 Profile  
 
 
PostPosted: 15 Mar 2010 
Хиппей (support team)
User avatar
Joined: 30 Jul 2007
Posts: 116047
Lоcаtion: Киев (Kyiv, UA)
Age: 46
Name: Andrey
Ну не голубой же оставлять :shok:
Это рабочий стол. У меня два любимых цвета - зеленый и серый :pardon:
По форуму малость заметно это... :oops:

_________________


Top
 Profile E-mail  
 
 
PostPosted: 15 Mar 2010 
хард н хэвщик (support team)
User avatar
Joined: 02 Jun 2008
Posts: 16881
Lоcаtion: Н.Новгород
Age: 32
Name: Артем
Scatterbrain wrote:
Это рабочий стол.

а... теперь ясно.
а то я подумал ты установил серый фон в проводнике


Top
 Profile  
 
 
PostPosted: 15 Mar 2010 
Хиппей (support team)
User avatar
Joined: 30 Jul 2007
Posts: 116047
Lоcаtion: Киев (Kyiv, UA)
Age: 46
Name: Andrey
:crazy: Не, ненавижу в проводнике вид "плитка" :crazy:

_________________


Top
 Profile E-mail  
 
Display posts from previous:  Sort by  
Post new topic Reply to topic  [ 9 posts ] 

All times are UTC + 3 hours


Who is online

Users browsing this forum: No registered users and 3 guests


You cannot post new topics in this forum
You cannot reply to topics in this forum
You cannot edit your posts in this forum
You cannot delete your posts in this forum
You cannot post attachments in this forum

Search for:
Яндекс.Метрика
Powered by phpBB © 2000, 2002, 2005, 2007 phpBB Group