\m/ 80's metal \m/

Информационно-аналитический форум "80 см пыли" (In Search We Trust) "У нас никто никуда не спешит"
Me For You - http://me-4u.com
It is currently 17 Oct 2019

All times are UTC + 3 hours

Spoiler
Chat - temporary registration for foreign users (please leave your application here)







Post new topic Reply to topic  [ 12 posts ] 
Author Message
 
PostPosted: 11 Feb 2010 
А может смените мне статус?..
Joined: 03 Jul 2009
Posts: 885
Lоcаtion: Serbia
Name: Laki
Image


1. Warlord 02:29
2. Probation Violation 02:01
3. Metal Massacre 03:01
4. The Dark Side 07:07
5. Razor Love 04:13
6. Crack The Whip 03:22
7. Executioner 03:03
8. Fear No Evil 03:08
9. Guillotine 03:37
10. Knightrider 04:56
11. Promised Land 03:05
12. Goin' Insane 03:39
13. Heart Of Stone 05:19
14. See You In Hell 04:05

:thanx:


Top
 Profile E-mail  
 
 
PostPosted: 22 Aug 2010 
А может смените мне статус?..
User avatar
Joined: 30 Aug 2009
Posts: 824
Lоcаtion: Ачинск, Красноярский край
Age: 33
Name: Стас
MP3-хай кто-нибудь поделитесь, а то везде линки сдохли :shok:, please!!! :(


Top
 Profile E-mail  
 
 
PostPosted: 22 Aug 2010 
А может смените мне статус?..
User avatar
Joined: 28 Oct 2009
Posts: 662
Lоcаtion: Sweden
Age: 32
Name: Emil
Knightmare II - Skeletal Remains [Compilation] (2008)
Image

Link (320kbps): http://www.multiupload.com/89JTF7VYQ8

Tracklist:
1. Warlord 02:29
2. Probation Violation 02:01
3. Metal Massacre 03:01
4. The Dark Side 07:07
5. Razor Love 04:13
6. Crack The Whip 03:22
7. Executioner 03:03
8. Fear No Evil 03:08
9. Guillotine 03:37
10. Knightrider 04:56
11. Promised Land 03:05
12. Goin' Insane 03:39
13. Heart Of Stone 05:19
14. See You In Hell 04:05

_________________
http://strappadometalblog.blogspot.com | http://heavymetalrarities.com/forum


Top
 Profile E-mail  
 
 
PostPosted: 22 Aug 2010 
А может смените мне статус?..
User avatar
Joined: 28 Oct 2009
Posts: 662
Lоcаtion: Sweden
Age: 32
Name: Emil
oh sorry you wanted lossless :dash:

_________________
http://strappadometalblog.blogspot.com | http://heavymetalrarities.com/forum


Top
 Profile E-mail  
 
 
PostPosted: 22 Aug 2010 
Доктор энтомологии
User avatar
Joined: 22 Jan 2009
Posts: 9925
Lоcаtion: Даугавпилс
Age: 44
Name: Алексей
:thanx: спасиба. послушаем там что это такое


Top
 Profile  
 
 
PostPosted: 22 Aug 2010 
А может смените мне статус?..
User avatar
Joined: 30 Aug 2009
Posts: 824
Lоcаtion: Ачинск, Красноярский край
Age: 33
Name: Стас
:thanx:


Top
 Profile E-mail  
 
 
PostPosted: 21 Apr 2012 
Работнечег
User avatar
Joined: 28 Aug 2007
Posts: 6031
Lоcаtion: г. Москва
Age: 30
Name: Дима
Image

Band: Knightmare II
Album: Skeletal Remains (Compilation)
Label: Old Metal Records/Evil Coven Records
Genre: Heavy Metal
Country: USA
Format: Flac + Log + Cue + Covers
Size: 361 Mb

Line-Up:
Gary Gillian - Bass
Greg Fisk - Drums
Van Simmons - Guitars
Joe Kagle - Guitars
Rotten Rod - Vocals


Tracklist:
1. Warlord 02:29
2. Probation Violation 02:01
3. Metal Massacre 03:01
4. The Dark Side 07:07
5. Razor Love 04:13
6. Crack The Whip 03:22
7. Executioner 03:03
8. Fear No Evil 03:08
9. Guillotine 03:37
10. Knightrider 04:56
11. Promised Land 03:05
12. Goin' Insane 03:39
13. Heart Of Stone 05:19
14. See You In Hell 04:05

LOG
Exact Audio Copy V0.99 prebeta 5 from 4. May 2009

EAC extraction logfile from 15. April 2012, 19:48

Knightmare II / Skeletal Remains (Compilation)

Used drive : PIONEER DVD-RW DVR-116D Adapter: 0 ID: 0

Read mode : Secure
Utilize accurate stream : Yes
Defeat audio cache : Yes
Make use of C2 pointers : No

Read offset correction : 96
Overread into Lead-In and Lead-Out : No
Fill up missing offset samples with silence : Yes
Delete leading and trailing silent blocks : No
Null samples used in CRC calculations : Yes
Used interface : Native Win32 interface for Win NT & 2000

Used output format : User Defined Encoder
Selected bitrate : 32 kBit/s
Quality : High
Add ID3 tag : No
Command line compressor : C:\Program Files\Exact Audio Copy\Flac\flac.exe
Additional command line options : -6 -V %s


TOC of the extracted CD

Track | Start | Length | Start sector | End sector
---------------------------------------------------------
1 | 0:00.00 | 2:29.72 | 0 | 11246
2 | 2:29.72 | 2:01.62 | 11247 | 20383
3 | 4:31.59 | 3:01.31 | 20384 | 33989
4 | 7:33.15 | 7:07.22 | 33990 | 66036
5 | 14:40.37 | 4:13.52 | 66037 | 85063
6 | 18:54.14 | 3:22.56 | 85064 | 100269
7 | 22:16.70 | 3:03.54 | 100270 | 114048
8 | 25:20.49 | 3:08.24 | 114049 | 128172
9 | 28:28.73 | 3:37.30 | 128173 | 144477
10 | 32:06.28 | 4:56.70 | 144478 | 166747
11 | 37:03.23 | 3:05.05 | 166748 | 180627
12 | 40:08.28 | 3:39.41 | 180628 | 197093
13 | 43:47.69 | 5:19.68 | 197094 | 221086
14 | 49:07.62 | 4:05.37 | 221087 | 239498


Range status and errors

Selected range

Filename D:\Музыка\Lossless\Knightmare II - Skeletal Remains (Compilation) (2008)\Knightmare II - Skeletal Remains (Compilation).wav

Peak level 98.8 %
Range quality 100.0 %
Copy CRC 9441CFED
Copy OK

No errors occurred


AccurateRip summary

Track 1 accurately ripped (confidence 1) [91186A4E]
Track 2 accurately ripped (confidence 1) [C3444773]
Track 3 accurately ripped (confidence 1) [78B0219B]
Track 4 accurately ripped (confidence 1) [E7E1A9A2]
Track 5 accurately ripped (confidence 1) [D030813E]
Track 6 accurately ripped (confidence 1) [F398128A]
Track 7 accurately ripped (confidence 1) [8BB92BF9]
Track 8 accurately ripped (confidence 1) [E5143732]
Track 9 accurately ripped (confidence 1) [4A2C73D1]
Track 10 accurately ripped (confidence 1) [745D2A91]
Track 11 accurately ripped (confidence 1) [756A741E]
Track 12 accurately ripped (confidence 1) [A7C6C0E2]
Track 13 accurately ripped (confidence 1) [06198FAA]
Track 14 accurately ripped (confidence 1) [D82B16B1]

All tracks accurately ripped

End of status report

CUE
REM GENRE "Heavy Metal"
REM DATE 2008
REM DISCID B30C790E
REM COMMENT "ExactAudioCopy v0.99pb5"
PERFORMER "Knightmare II"
TITLE "Skeletal Remains (Compilation)"
FILE "Knightmare II - Skeletal Remains (Compilation).flac" WAVE
TRACK 01 AUDIO
TITLE "Warlord"
PERFORMER "Knightmare II"
INDEX 01 00:00:00
TRACK 02 AUDIO
TITLE "Probation Violation"
PERFORMER "Knightmare II"
INDEX 00 02:27:72
INDEX 01 02:29:72
TRACK 03 AUDIO
TITLE "Metal Massacre"
PERFORMER "Knightmare II"
INDEX 00 04:29:59
INDEX 01 04:31:59
TRACK 04 AUDIO
TITLE "The Dark Side"
PERFORMER "Knightmare II"
INDEX 00 07:31:15
INDEX 01 07:33:15
TRACK 05 AUDIO
TITLE "Razor Love"
PERFORMER "Knightmare II"
INDEX 00 14:38:37
INDEX 01 14:40:37
TRACK 06 AUDIO
TITLE "Crack The Whip"
PERFORMER "Knightmare II"
INDEX 00 18:52:14
INDEX 01 18:54:14
TRACK 07 AUDIO
TITLE "Executioner"
PERFORMER "Knightmare II"
INDEX 00 22:14:70
INDEX 01 22:16:70
TRACK 08 AUDIO
TITLE "Fear No Evil"
PERFORMER "Knightmare II"
INDEX 00 25:18:49
INDEX 01 25:20:49
TRACK 09 AUDIO
TITLE "Guillotine"
PERFORMER "Knightmare II"
INDEX 00 28:26:73
INDEX 01 28:28:73
TRACK 10 AUDIO
TITLE "Knightrider"
PERFORMER "Knightmare II"
INDEX 00 32:04:28
INDEX 01 32:06:28
TRACK 11 AUDIO
TITLE "Promised Land"
PERFORMER "Knightmare II"
INDEX 00 37:01:23
INDEX 01 37:03:23
TRACK 12 AUDIO
TITLE "Goin' Insane"
PERFORMER "Knightmare II"
INDEX 00 40:06:28
INDEX 01 40:08:28
TRACK 13 AUDIO
TITLE "Heart Of Stone"
PERFORMER "Knightmare II"
INDEX 00 43:45:69
INDEX 01 43:47:69
TRACK 14 AUDIO
TITLE "See You In Hell"
PERFORMER "Knightmare II"
INDEX 00 49:05:62
INDEX 01 49:07:62

Spectrum
Image
Image


Narod.Ru

phpBB [youtube]

phpBB [youtube]

phpBB [youtube]


Из интересных фактов стоит отметить, что в написании песен Promised Land и Goin' Insane отметился Joey Allen (aka Cagle), который в скором времени после этого присоединился к небезизвестным Warrant. Также на бэк-вокале в песне Promised Land засветился Danny Stag, который впоследствии стал гитаристом Kingdom Come. Ещё один интересный момент, группа является "Южно-Калифорнийским феноменом, так как никогда не ездила в тур, кроме концертов в Мексике и на фестивале в Миннесоте".
P.S. Спектр неоднородный, частотки иногда попрыгивают.


Top
 Profile E-mail  
 
 
PostPosted: 21 Apr 2012 
Прокъмитолист
User avatar
Joined: 12 Aug 2007
Posts: 6623
Lоcаtion: Санктъ-Петербуркъ
Age: 51
Name: Олекъ
:thanx:

_________________
прокъметол - это музыко, от которово есть прок (ы)


Top
 Profile  
 
 
PostPosted: 21 Apr 2012 
Хиппей (support team)
User avatar
Joined: 30 Jul 2007
Posts: 114883
Lоcаtion: Киев (Kyiv, UA)
Age: 46
Name: Andrey
:thanx:

mirror: MultiUp l Narod


Димка, я темки объединил и перенёс в Бухту :pardon:

_________________


Top
 Profile E-mail  
 
 
PostPosted: 22 Apr 2012 
А может смените мне статус?..
Joined: 03 Jul 2009
Posts: 885
Lоcаtion: Serbia
Name: Laki
Great. I needed this in lossless. Thanks


Top
 Profile E-mail  
 
 
PostPosted: 22 Apr 2012 
Генеральный thrasher
User avatar
Joined: 03 Oct 2008
Posts: 3738
Lоcаtion: Ханты-Мансийский АО
Age: 44
Name: Сергей
:true: :losik: :thanx:


Top
 Profile  
 
 
PostPosted: 03 May 2012 
ТрэшЭрос
User avatar
Joined: 18 Jul 2011
Posts: 2305
Lоcаtion: Гулькевичи
Age: 44
Name: Александр
:dance: :true: :dance: :thanx:

_________________
Thrash no trash!!!


Top
 Profile E-mail  
 
Display posts from previous:  Sort by  
Post new topic Reply to topic  [ 12 posts ] 

All times are UTC + 3 hours


Who is online

Users browsing this forum: No registered users and 2 guests


You cannot post new topics in this forum
You cannot reply to topics in this forum
You cannot edit your posts in this forum
You cannot delete your posts in this forum
You cannot post attachments in this forum

Search for:
Яндекс.Метрика
Powered by phpBB © 2000, 2002, 2005, 2007 phpBB Group