\m/ 80's metal \m/

Информационно-аналитический форум "80 см пыли" (In Search We Trust) "У нас никто никуда не спешит"
Me For You - http://me-4u.com
It is currently 17 Jun 2019

All times are UTC + 3 hours

Spoiler
Chat - temporary registration for foreign users (please leave your application here)







Post new topic Reply to topic  [ 2 posts ] 
Author Message
 
PostPosted: 03 Jan 2010 
Old Time Rock`n`Roll
User avatar
Joined: 23 Jun 2008
Posts: 3438
Lоcаtion: г.Ульяновск
Age: 40
Name: Константин
Killer Dwarfs – Big Deal (1988)

Image

Year: 1988
Style: Hard Rock
Country: Сanada
Format: APE + log + cue + booklet & mp3-320
Size: 295 Mb + 95 Mb + 12 Mb

Tracklist
01. Tell Me Please (4:09)
02. We Stand Alone (5:07)
03. Startin' To Shine (4:33)
04. Breakaway (3:08)
05. Union Of Pride (5:08)
06. Lifetime (4:26)
07. Power (4:15)
08. I'm Alive (4:15)
09. Burn It Down (2:40)
10. Desperados (4:23)

TPT – 42:10

Line-Up
Darrell Millar Drums, Backing Vocals
Mike Hall Guitars, Backing Vocals
Ronald Mayer Bass, Backing Vocals
Russell Graham Lead Vocals

Album Credits:
Album Credits:
Produced: Simon Hanhart
Engineered: Simon Hanhart
Mixed: Simon Hanhart

Additional Players:
The Boxcar Tabernacle Choir Add. Vocals

Chart Position:
USA # 169

Log
EAC extraction logfile from 2. August 2005, 8:37 for CD
Killer Dwarfs / Big Deal

Used drive : PLEXTOR CD-R PREMIUM Adapter: 1 ID: 0
Read mode : Secure with NO C2, accurate stream, disable cache
Combined read/write offset correction : 30
Overread into Lead-In and Lead-Out : No

Used output format : C:\Archivos de programa\Monkey's Audio\MAC.exe (Monkey's Audio Lossless Encoder)
High Lossless Compression

Other options :
Fill up missing offset samples with silence : Yes
Delete leading and trailing silent blocks : No
Installed external ASPI interface


Range status and errors
Selected range
Filename C:\CDImage.wav

Peak level 97.5 %
Range quality 99.9 %
CRC 2A2ECAD9
Copy OK

No errors occured

End of status report


Cue
REM DISCID 7A09E10A
REM COMMENT "ExactAudioCopy v0.95b2"
PERFORMER "Killer Dwarfs"
TITLE "Big Deal"
FILE "CDImage.wav" WAVE
TRACK 01 AUDIO
TITLE "Tell Me Please"
PERFORMER "Killer Dwarfs"
INDEX 01 00:00:00
TRACK 02 AUDIO
TITLE "We Stand Alone"
PERFORMER "Killer Dwarfs"
INDEX 01 04:09:45
TRACK 03 AUDIO
TITLE "Startin' To Shine"
PERFORMER "Killer Dwarfs"
INDEX 01 09:16:45
TRACK 04 AUDIO
TITLE "Breakaway"
PERFORMER "Killer Dwarfs"
INDEX 01 13:50:40
TRACK 05 AUDIO
TITLE "Union of Pride"
PERFORMER "Killer Dwarfs"
INDEX 01 16:58:50
TRACK 06 AUDIO
TITLE "Lifetime"
PERFORMER "Killer Dwarfs"
INDEX 01 22:07:47
TRACK 07 AUDIO
TITLE "Power"
PERFORMER "Killer Dwarfs"
INDEX 01 26:34:45
TRACK 08 AUDIO
TITLE "I'm Alive"
PERFORMER "Killer Dwarfs"
INDEX 01 30:49:42
TRACK 09 AUDIO
TITLE "Burn it Down"
PERFORMER "Killer Dwarfs"
INDEX 01 35:05:30
TRACK 10 AUDIO
TITLE "Desperados"
PERFORMER "Killer Dwarfs"
INDEX 00 37:44:72
INDEX 01 37:45:00


APE
megaupload-APE

mp3-320
narod-320

буклет отдельно
narod-буклет

Релиз с WWR, автор рипа - Keykey

Image


Top
 Profile  
 
 
PostPosted: 27 Oct 2010 
Труъ
User avatar
Joined: 05 Oct 2008
Posts: 194
Lоcаtion: Saint Petersburg
Age: 46
Name: Jesse
Большое спасибо за канадаский Доккен! Отличный альбом!!! :true:


Top
 Profile  
 
Display posts from previous:  Sort by  
Post new topic Reply to topic  [ 2 posts ] 

All times are UTC + 3 hours


Who is online

Users browsing this forum: No registered users and 3 guests


You cannot post new topics in this forum
You cannot reply to topics in this forum
You cannot edit your posts in this forum
You cannot delete your posts in this forum
You cannot post attachments in this forum

Search for:
Яндекс.Метрика
Powered by phpBB © 2000, 2002, 2005, 2007 phpBB Group