\m/ 80's metal \m/

Информационно-аналитический форум "80 см пыли" (In Search We Trust) "У нас никто никуда не спешит"
Me For You - http://me-4u.com
It is currently 12 Dec 2019

All times are UTC + 3 hours

Spoiler
Chat - temporary registration for foreign users (please leave your application here)







Post new topic Reply to topic  [ 230 posts ]  Go to page Previous  1 ... 8, 9, 10, 11, 12  Next
Author Message
 
PostPosted: 11 Mar 2008 
udo
User avatar
Joined: 01 Mar 2008
Posts: 2343
Lоcаtion: Краснодар
Age: 48
Name: РОМАН
2 rolf_63 я знаю у тебя есть эти французы , будь другом залей куда нибудь , желательно на ифолдер , а то без них спится плохо

Killers Lossless Releases - collector

Killers Lossless Releases
1985 - Fils De La Haine (reissued In 2008)
Зеркало 1
Зеркало 2
1986 - Danger De Vie (reissued In 1997)
Yadi
1987 - Mise Aux Poings (reissued In 1997)
Yadi
1989 - Resistances (reissued In 1997)
Yadi
1992 - Les Cités interdites (Reissued In 1997)
Зеркало 1
Зеркало 2
Зеркало 3
Зеркало 4
1992 - Les Cités interdites Vinyl Version by Wunderman
топик на форуме
1995 - Contre-Courant
Yadi
1996 - Ennemis En Public (live)
Yadi
1998 - Fort Interieur
Зеркало 1
Зеркало 2
1999 - 109 (Remastered In 2008)
Yadi
2001 - Mise aux poings 2001 (overkiller)
Yadi
2002 - Habemus Metal (overkiller)
Yadi
2007 - À L'ombre des Vautours (overkiller)
Yadi
2012 - 10:10
Yadi


Top
 Profile E-mail  
 
 
PostPosted: 23 Feb 2018 
Я набрал 1000 сообщений!
Joined: 09 Jul 2008
Posts: 3149
Age: 46
Name: Сергей
а между тем Le Baiser de la mort уже не последний, тихой сапой 2 месяца назад выпущен metal-archives.com
KILLERS / Trajets-dits - 2017


Top
 Profile  
 
 
PostPosted: 04 Mar 2018 
Работнечег
User avatar
Joined: 28 Aug 2007
Posts: 6086
Lоcаtion: г. Москва
Age: 30
Name: Дима
Ага, видел, мне на мыло уведомление приходило от них, но пока не искал в плане послушать.


Top
 Profile E-mail  
 
 
PostPosted: 05 Mar 2018 
Хиппей (support team)
User avatar
Joined: 30 Jul 2007
Posts: 116090
Lоcаtion: Киев (Kyiv, UA)
Age: 46
Name: Andrey
ничего не буду говорить
и так все понятно
искал -- не нашел
решил спросить у вас

О =) Какое занятное сообщение от Макса :crazy: Ну, в плане, сейчас его читать занятно и смешно.

_________________


Top
 Profile E-mail  
 
 
PostPosted: 01 Nov 2019 
Работнечег
User avatar
Joined: 28 Aug 2007
Posts: 6086
Lоcаtion: г. Москва
Age: 30
Name: Дима
Killers - 2012 - 10:10

Image

Label: Brennus
Genre: Heavy/Speed Metal
Country: France
Format: Flac + Log + Cue + Covers
Size: 384 Mb

Line-Up:
Bruno Dolheguy - Vocals, Guitar
Patrick Oliver - Bass
Thierry Andrieu - Guitar, Backing Vocals
Carlo Di Matteo - Drums


Tracklist:
1. Nom de Dieu 04:19
2. Au nom des morts 05:04
3. Tricheurs 04:09
4. Manipulés 07:47
5. La Guerre 05:25
6. Vague souvenir 04:15
7. Machine à tuer 03:37
8. C'est du vent 04:40
9. Insupportable 05:21
10. Vivons cachés 04:27

LOG
Exact Audio Copy V1.3 from 2. September 2016

EAC extraction logfile from 15. September 2019, 18:31

Killers / Imido

Used drive : PIONEER DVD-RW DVR-221 Adapter: 1 ID: 0

Read mode : Secure
Utilize accurate stream : Yes
Defeat audio cache : Yes
Make use of C2 pointers : No

Read offset correction : 6
Overread into Lead-In and Lead-Out : No
Fill up missing offset samples with silence : Yes
Delete leading and trailing silent blocks : No
Null samples used in CRC calculations : Yes
Used interface : Native Win32 interface for Win NT & 2000

Used output format : User Defined Encoder
Selected bitrate : 768 kBit/s
Quality : High
Add ID3 tag : No
Command line compressor : C:\Program Files (x86)\Exact Audio Copy\FLAC\FLAC.EXE
Additional command line options : -6 -V -T "ARTIST=%artist%" -T "TITLE=%title%" -T "ALBUM=%albumtitle%" -T "DATE=%year%" -T "TRACKNUMBER=%tracknr%" -T "GENRE=%genre%" -T "COMMENT=%comment%" -T "BAND=%albuminterpret%" -T "ALBUMARTIST=%albuminterpret%" -T "COMPOSER=%composer%" %haslyrics%--tag-from-file=LYRICS="%lyricsfile%"%haslyrics% -T "DISCNUMBER=%cdnumber%" -T "TOTALDISCS=%totalcds%" -T "TOTALTRACKS=%numtracks%" %hascover%--picture="%coverfile%"%hascover% %source% -o %dest%


TOC of the extracted CD

Track | Start | Length | Start sector | End sector
---------------------------------------------------------
1 | 0:00.00 | 4:19.20 | 0 | 19444
2 | 4:19.20 | 5:04.29 | 19445 | 42273
3 | 9:23.49 | 4:09.45 | 42274 | 60993
4 | 13:33.19 | 7:47.60 | 60994 | 96078
5 | 21:21.04 | 5:25.30 | 96079 | 120483
6 | 26:46.34 | 4:15.19 | 120484 | 139627
7 | 31:01.53 | 3:37.17 | 139628 | 155919
8 | 34:38.70 | 4:40.73 | 155920 | 176992
9 | 39:19.68 | 5:21.27 | 176993 | 201094
10 | 44:41.20 | 4:27.19 | 201095 | 221138


Range status and errors

Selected range

Filename D:\Музыка\Lossless\Killers - Imido (2012)\Killers - Imido.wav

Peak level 100.0 %
Extraction speed 5.7 X
Range quality 99.9 %
Copy CRC B1FD3490
Copy OK

No errors occurred


AccurateRip summary

Track 1 not present in database
Track 2 not present in database
Track 3 not present in database
Track 4 not present in database
Track 5 not present in database
Track 6 not present in database
Track 7 not present in database
Track 8 not present in database
Track 9 not present in database
Track 10 not present in database

None of the tracks are present in the AccurateRip database

End of status report

---- CUETools DB Plugin V2.1.6

[CTDB TOCID: PaHSvKArdlnBu.tl0W.8ecXJ5xk-] database access error: Невозможно разрешить удаленное имя: 'db.cuetools.net'

CUE
REM GENRE "Heavy Metal"
REM DATE 2012
REM DISCID 810B840A
REM COMMENT "ExactAudioCopy v1.3"
PERFORMER "Killers"
TITLE "1010"
REM COMPOSER ""
FILE "Killers - Imido.flac" WAVE
TRACK 01 AUDIO
TITLE "Nom De Dieu"
PERFORMER "Killers"
REM COMPOSER ""
FLAGS DCP
INDEX 01 00:00:00
TRACK 02 AUDIO
TITLE "Au Nom Des Morts"
PERFORMER "Killers"
REM COMPOSER ""
FLAGS DCP
INDEX 01 04:19:20
TRACK 03 AUDIO
TITLE "Tricheurs"
PERFORMER "Killers"
REM COMPOSER ""
FLAGS DCP
INDEX 01 09:23:49
TRACK 04 AUDIO
TITLE "Manipules"
PERFORMER "Killers"
REM COMPOSER ""
FLAGS DCP
INDEX 01 13:33:19
TRACK 05 AUDIO
TITLE "La Guerre"
PERFORMER "Killers"
REM COMPOSER ""
FLAGS DCP
INDEX 01 21:21:04
TRACK 06 AUDIO
TITLE "Vague Souvenir"
PERFORMER "Killers"
REM COMPOSER ""
FLAGS DCP
INDEX 01 26:46:34
TRACK 07 AUDIO
TITLE "Machine A Tuer"
PERFORMER "Killers"
REM COMPOSER ""
FLAGS DCP
INDEX 01 31:01:53
TRACK 08 AUDIO
TITLE "C'est Du Vent"
PERFORMER "Killers"
REM COMPOSER ""
FLAGS DCP
INDEX 01 34:38:70
TRACK 09 AUDIO
TITLE "Insupportable"
PERFORMER "Killers"
REM COMPOSER ""
FLAGS DCP
INDEX 01 39:19:68
TRACK 10 AUDIO
TITLE "Vivons Caches"
PERFORMER "Killers"
REM COMPOSER ""
FLAGS DCP
INDEX 01 44:41:20


Yadi


Top
 Profile E-mail  
 
 
PostPosted: 01 Nov 2019 
семерых одним ударом
Joined: 18 Aug 2007
Posts: 4300
Lоcаtion: Владивосток
Age: 44
Name: Николай Николаевич
о, французики!! Спасибо! А Дер Кайзера случаем нет в лосе?


Top
 Profile  
 
 
PostPosted: 01 Nov 2019 
Хиппей (support team)
User avatar
Joined: 30 Jul 2007
Posts: 116090
Lоcаtion: Киев (Kyiv, UA)
Age: 46
Name: Andrey
:thanx:

mirror: Ur-Files l Telega l Uloz l Narod

_________________


Top
 Profile E-mail  
 
 
PostPosted: 02 Nov 2019 
Прокъмитолист
User avatar
Joined: 12 Aug 2007
Posts: 6652
Lоcаtion: Санктъ-Петербуркъ
Age: 52
Name: Олекъ
:thanx:

_________________
прокъметол - это музыко, от которово есть прок (ы)


Top
 Profile  
 
 
PostPosted: 02 Nov 2019 
Я набрал 1000 сообщений!
Joined: 09 Jul 2008
Posts: 3149
Age: 46
Name: Сергей
а я чет последний найти не могу


Top
 Profile  
 
 
PostPosted: 03 Nov 2019 
Хиппей (support team)
User avatar
Joined: 30 Jul 2007
Posts: 116090
Lоcаtion: Киев (Kyiv, UA)
Age: 46
Name: Andrey
Тема слеплена с более первой и более полной :kro:

_________________


Top
 Profile E-mail  
 
 
PostPosted: 03 Nov 2019 
Power Metal Maniac
User avatar
Joined: 09 Aug 2008
Posts: 6997
Lоcаtion: Москва
Age: 41
Name: Егор
Heavy/Speed будет более верное описание стиля

_________________
Long Live Metal!


Top
 Profile  
 
 
PostPosted: 04 Nov 2019 
Хиппей (support team)
User avatar
Joined: 30 Jul 2007
Posts: 116090
Lоcаtion: Киев (Kyiv, UA)
Age: 46
Name: Andrey
Ага, сейчас добавлю. Но явно и павер проскакивает у них в 80-х.

_________________


Top
 Profile E-mail  
 
 
PostPosted: 04 Nov 2019 
Хиппей (support team)
User avatar
Joined: 30 Jul 2007
Posts: 116090
Lоcаtion: Киев (Kyiv, UA)
Age: 46
Name: Andrey
А этот альбом 12 года так и вовсе довольно мелодичный и старческо-монотонный и выдержан почти в стиле единой скорcоти - среднетемповой :bore:

6/10

_________________


Top
 Profile E-mail  
 
 
PostPosted: 04 Nov 2019 
Хиппей (support team)
User avatar
Joined: 30 Jul 2007
Posts: 116090
Lоcаtion: Киев (Kyiv, UA)
Age: 46
Name: Andrey
Хотя, сейчас переслушиваю. Не прав я. Всё же большинство песен достаточно скоростные :lob: :lob: :lob:

_________________


Top
 Profile E-mail  
 
 
PostPosted: 15 Nov 2019 
Хиппей (support team)
User avatar
Joined: 30 Jul 2007
Posts: 116090
Lоcаtion: Киев (Kyiv, UA)
Age: 46
Name: Andrey
Какой охренезный диск (альбом) получился :lob: :lob: :lob:

Забираю в личные топы. Слушаю уже третьи сутки. Вокал Долхегуя умиляет :meloman:

8/10

ps. Попробуйте представить, что группа поёт на русском языке - оборжётесь :kro:

_________________


Top
 Profile E-mail  
 
 
PostPosted: 15 Nov 2019 
спирт 100%
User avatar
Joined: 22 Sep 2008
Posts: 4501
Age: 48
Name: Саня
:thanx: :true:


Top
 Profile  
 
 
PostPosted: 18 Nov 2019 
Хиппей (support team)
User avatar
Joined: 30 Jul 2007
Posts: 116090
Lоcаtion: Киев (Kyiv, UA)
Age: 46
Name: Andrey
Не забыть слепить все темы по данной группе в одну. По ходу, Димка уже всю дискографию с лосях собрал :thanx:

_________________


Top
 Profile E-mail  
 
 
PostPosted: 18 Nov 2019 
Я набрал 1000 сообщений!
Joined: 09 Jul 2008
Posts: 3149
Age: 46
Name: Сергей
и последний?


Top
 Profile  
 
 
PostPosted: 19 Nov 2019 
Хиппей (support team)
User avatar
Joined: 30 Jul 2007
Posts: 116090
Lоcаtion: Киев (Kyiv, UA)
Age: 46
Name: Andrey
Последний ешшо впереди :kro:

_________________


Top
 Profile E-mail  
 
 
PostPosted: 19 Nov 2019 
Работнечег
User avatar
Joined: 28 Aug 2007
Posts: 6086
Lоcаtion: г. Москва
Age: 30
Name: Дима
Да, я тоже хотел слепить, но честно сказать, так и не научился этого делать (( Есть у меня не всё но больше половины наверное точно. Сам собирался переслушать французов и может что-то новое прикупить!


Top
 Profile E-mail  
 
 
PostPosted: 19 Nov 2019 
Хиппей (support team)
User avatar
Joined: 30 Jul 2007
Posts: 116090
Lоcаtion: Киев (Kyiv, UA)
Age: 46
Name: Andrey
church wrote:
Да, я тоже хотел слепить, но честно сказать, так и не научился этого делать ((

Запилить мануал? :vic:

_________________


Top
 Profile E-mail  
 
Display posts from previous:  Sort by  
Post new topic Reply to topic  [ 230 posts ]  Go to page Previous  1 ... 8, 9, 10, 11, 12  Next

All times are UTC + 3 hours


Who is online

Users browsing this forum: No registered users and 2 guests


You cannot post new topics in this forum
You cannot reply to topics in this forum
You cannot edit your posts in this forum
You cannot delete your posts in this forum
You cannot post attachments in this forum

Search for:
Яндекс.Метрика
Powered by phpBB © 2000, 2002, 2005, 2007 phpBB Group