\m/ 80's metal \m/

Информационно-аналитический форум "80 см пыли" (In Search We Trust) "У нас никто никуда не спешит"
Me For You - http://me-4u.com
It is currently 07 Dec 2019

All times are UTC + 3 hours

Spoiler
Chat - temporary registration for foreign users (please leave your application here)







Post new topic Reply to topic  [ 230 posts ]  Go to page Previous  1 ... 3, 4, 5, 6, 7, 8, 9 ... 12  Next
Author Message
 
PostPosted: 11 Mar 2008 
udo
User avatar
Joined: 01 Mar 2008
Posts: 2343
Lоcаtion: Краснодар
Age: 48
Name: РОМАН
2 rolf_63 я знаю у тебя есть эти французы , будь другом залей куда нибудь , желательно на ифолдер , а то без них спится плохо

Killers Lossless Releases - collector

Killers Lossless Releases
1985 - Fils De La Haine (reissued In 2008)
Зеркало 1
Зеркало 2
1986 - Danger De Vie (reissued In 1997)
Yadi
1987 - Mise Aux Poings (reissued In 1997)
Yadi
1989 - Resistances (reissued In 1997)
Yadi
1992 - Les Cités interdites (Reissued In 1997)
Зеркало 1
Зеркало 2
Зеркало 3
Зеркало 4
1992 - Les Cités interdites Vinyl Version by Wunderman
топик на форуме
1995 - Contre-Courant
Yadi
1996 - Ennemis En Public (live)
Yadi
1998 - Fort Interieur
Зеркало 1
Зеркало 2
1999 - 109 (Remastered In 2008)
Yadi
2001 - Mise aux poings 2001 (overkiller)
Yadi
2002 - Habemus Metal (overkiller)
Yadi
2007 - À L'ombre des Vautours (overkiller)
Yadi
2012 - 10:10
Yadi


Top
 Profile E-mail  
 
 
PostPosted: 28 Oct 2010 
Труъ
User avatar
Joined: 05 Oct 2008
Posts: 194
Lоcаtion: Saint Petersburg
Age: 46
Name: Jesse
И от меня огромное mercy!


Top
 Profile  
 
 
PostPosted: 18 Feb 2011 
Работнечег
User avatar
Joined: 28 Aug 2007
Posts: 6086
Lоcаtion: г. Москва
Age: 30
Name: Дима
Killers - 1998 - Fort Interieur

Image

Band: Killers
Album: Fort Interieur
Label: Brennus
Genre: Speed Metal
Country: France
Format: Flac + Log + Cue + Covers
Size: 502 Mb

Line-Up:
Bruno Dolheguy - vocals ,guitar
Ronan Jacques - guitar
Alain Garces - bass
Patrick Soria - drums


Tracklist:
1. Paranoïa 03:58
2. Sûrs de Rien 04:21
3. Allez Vous Faire... 05:40
4. Animal 04:57
5. Arrantzale 04:51
6. Jurez 04:15
7. Mode D'emploi 03:59
8. Pour Toujours 05:09
9. Les Fous de Dieu 04:27
10. Plus Fort Que la Colère 04:27
11. Royaume du Silence 04:31
12. Sauve Qui Veut 05:04
13. Ainsi Sois Tu 05:20
14. Victime 03:05
15. Les Aléas de la Loi 04:19
16. Peuples Oubliés 02:38
Total playing time 01:11:01

LOG
Exact Audio Copy V0.99 prebeta 5 from 4. May 2009

EAC extraction logfile from 18. February 2011, 15:11

Killers / Fort intйrieur

Used drive : PIONEER DVD-RW DVR-116D Adapter: 0 ID: 0

Read mode : Secure
Utilize accurate stream : Yes
Defeat audio cache : Yes
Make use of C2 pointers : No

Read offset correction : 96
Overread into Lead-In and Lead-Out : No
Fill up missing offset samples with silence : Yes
Delete leading and trailing silent blocks : No
Null samples used in CRC calculations : Yes
Used interface : Native Win32 interface for Win NT & 2000

Used output format : User Defined Encoder
Selected bitrate : 32 kBit/s
Quality : High
Add ID3 tag : No
Command line compressor : C:\Program Files\Exact Audio Copy\Flac\flac.exe
Additional command line options : -6 -V %s


TOC of the extracted CD

Track | Start | Length | Start sector | End sector
---------------------------------------------------------
1 | 0:00.00 | 3:58.72 | 0 | 17921
2 | 3:58.72 | 4:21.29 | 17922 | 37525
3 | 8:20.26 | 5:40.08 | 37526 | 63033
4 | 14:00.34 | 4:59.50 | 63034 | 85508
5 | 19:00.09 | 4:53.14 | 85509 | 107497
6 | 23:53.23 | 4:16.06 | 107498 | 126703
7 | 28:09.29 | 4:01.50 | 126704 | 144828
8 | 32:11.04 | 5:11.72 | 144829 | 168225
9 | 37:23.01 | 4:27.23 | 168226 | 188273
10 | 41:50.24 | 4:28.28 | 188274 | 208401
11 | 46:18.52 | 4:31.65 | 208402 | 228791
12 | 50:50.42 | 5:04.73 | 228792 | 251664
13 | 55:55.40 | 5:20.19 | 251665 | 275683
14 | 61:15.59 | 3:05.72 | 275684 | 289630
15 | 64:21.56 | 4:19.10 | 289631 | 309065
16 | 68:40.66 | 2:38.28 | 309066 | 320943


Range status and errors

Selected range

Filename D:\Музыка\Lossless\Killers - Fort Interieur (1998)\Killers - Fort intйrieur.wav

Peak level 100.0 %
Range quality 100.0 %
Copy CRC 23B6DA01
Copy OK

No errors occurred


AccurateRip summary

Track 1 not present in database
Track 2 not present in database
Track 3 not present in database
Track 4 not present in database
Track 5 not present in database
Track 6 not present in database
Track 7 not present in database
Track 8 not present in database
Track 9 not present in database
Track 10 not present in database
Track 11 not present in database
Track 12 not present in database
Track 13 not present in database
Track 14 not present in database
Track 15 not present in database
Track 16 not present in database

None of the tracks are present in the AccurateRip database

End of status report

CUE
REM GENRE "Hard Rock"
REM DATE 1998
REM DISCID CB10B710
REM COMMENT "ExactAudioCopy v0.99pb5"
PERFORMER "Killers"
TITLE "Fort intйrieur"
FILE "Killers - Fort intйrieur.flac" WAVE
TRACK 01 AUDIO
TITLE "Paranoпa"
PERFORMER "Killers"
INDEX 01 00:00:00
TRACK 02 AUDIO
TITLE "Sыrs de rien"
PERFORMER "Killers"
INDEX 01 03:58:72
TRACK 03 AUDIO
TITLE "Allez vous faire..."
PERFORMER "Killers"
INDEX 01 08:20:26
TRACK 04 AUDIO
TITLE "Animal"
PERFORMER "Killers"
INDEX 01 14:00:34
TRACK 05 AUDIO
TITLE "Arrantzale"
PERFORMER "Killers"
INDEX 01 19:00:09
TRACK 06 AUDIO
TITLE "Durez"
PERFORMER "Killers"
INDEX 01 23:53:23
TRACK 07 AUDIO
TITLE "Mode d'emplo"
PERFORMER "Killers"
INDEX 01 28:09:29
TRACK 08 AUDIO
TITLE "Pour toujours"
PERFORMER "Killers"
INDEX 01 32:11:04
TRACK 09 AUDIO
TITLE "Les fous de Dieu"
PERFORMER "Killers"
INDEX 01 37:23:01
TRACK 10 AUDIO
TITLE "Plus fort que la colиre"
PERFORMER "Killers"
INDEX 01 41:50:24
TRACK 11 AUDIO
TITLE "Royaume du silence"
PERFORMER "Killers"
INDEX 01 46:18:52
TRACK 12 AUDIO
TITLE "Sauve qui peut"
PERFORMER "Killers"
INDEX 01 50:50:42
TRACK 13 AUDIO
TITLE "Ainsi sois tu"
PERFORMER "Killers"
INDEX 01 55:55:40
TRACK 14 AUDIO
TITLE "Victime"
PERFORMER "Killers"
INDEX 01 61:15:59
TRACK 15 AUDIO
TITLE "Les alйas de la loi"
PERFORMER "Killers"
INDEX 01 64:21:56
TRACK 16 AUDIO
TITLE "Peuples oubliйs"
PERFORMER "Killers"
INDEX 01 68:40:66


Narod.Ru


Top
 Profile E-mail  
 
 
PostPosted: 18 Feb 2011 
Прокъмитолист
User avatar
Joined: 12 Aug 2007
Posts: 6649
Lоcаtion: Санктъ-Петербуркъ
Age: 52
Name: Олекъ
и здесь спасибо! :thanx:

_________________
прокъметол - это музыко, от которово есть прок (ы)


Top
 Profile  
 
 
PostPosted: 19 Feb 2011 
Хиппей (support team)
User avatar
Joined: 30 Jul 2007
Posts: 116004
Lоcаtion: Киев (Kyiv, UA)
Age: 46
Name: Andrey
:thanx:

mirror: MultiUp l Narod

_________________


Top
 Profile E-mail  
 
 
PostPosted: 19 Feb 2011 
Работнечег
User avatar
Joined: 28 Aug 2007
Posts: 6086
Lоcаtion: г. Москва
Age: 30
Name: Дима
P.S. Кстати вопрос ко всем, остальных альбомов Killers в сети в лосслесс нет случайно? а то я не очень мониторю, просто чтобы не выкладывать то, что уже везде есть.


Top
 Profile E-mail  
 
 
PostPosted: 19 Feb 2011 
Хиппей (support team)
User avatar
Joined: 30 Jul 2007
Posts: 116004
Lоcаtion: Киев (Kyiv, UA)
Age: 46
Name: Andrey
А я вот, например, ваще редко смотрю что где еще есть :vic:

Явно Олег знает больше.

_________________


Top
 Profile E-mail  
 
 
PostPosted: 19 Feb 2011 
Прокъмитолист
User avatar
Joined: 12 Aug 2007
Posts: 6649
Lоcаtion: Санктъ-Петербуркъ
Age: 52
Name: Олекъ
все (ну или почти все) альбомы французов выкладывал на разных ресурсах Макс overkiller (наверняка на форуме у Оксаны можно их найти). но я, Дим, твой рип все равно скачаю - т.к. тут рипнуто образом и полные сканы :oops:

_________________
прокъметол - это музыко, от которово есть прок (ы)


Top
 Profile  
 
 
PostPosted: 19 Feb 2011 
Хиппей (support team)
User avatar
Joined: 30 Jul 2007
Posts: 116004
Lоcаtion: Киев (Kyiv, UA)
Age: 46
Name: Andrey
spiralarch wrote:
т.к. тут рипнуто образом и полные сканы

:true:

_________________


Top
 Profile E-mail  
 
 
PostPosted: 19 Feb 2011 
Работнечег
User avatar
Joined: 28 Aug 2007
Posts: 6086
Lоcаtion: г. Москва
Age: 30
Name: Дима
Максим, все альбомы нашлись?


Top
 Profile E-mail  
 
 
PostPosted: 19 Feb 2011 
Я набрал 1000 сообщений!
User avatar
Joined: 02 Feb 2009
Posts: 1000
Lоcаtion: из Тулы
Age: 45
Name: Максим
да
у меня теперь практически все есть на дисках
а остальные в лосях
вся дискография в сборе

_________________
КМА


Top
 Profile  
 
 
PostPosted: 19 Feb 2011 
metallpaparazzy
User avatar
Joined: 20 Dec 2009
Posts: 674
Lоcаtion: Днепропетровск
Age: 44
Name: Геннадий
:thanx: забрал.
...и хранцусский ухо не режет даже... :true:


Top
 Profile E-mail  
 
 
PostPosted: 19 Feb 2011 
Я набрал 1000 сообщений!
User avatar
Joined: 02 Feb 2009
Posts: 1000
Lоcаtion: из Тулы
Age: 45
Name: Максим
самый сильный альбом Habemus Metal

_________________
КМА


Top
 Profile  
 
 
PostPosted: 19 Apr 2011 
Работнечег
User avatar
Joined: 28 Aug 2007
Posts: 6086
Lоcаtion: г. Москва
Age: 30
Name: Дима
Killers - 1985 - Fils De La Haine (reissued In 2008)

Image

Band: Killers
Album: Fils De La Haine
Label: ?
Genre: Speed Metal
Country: France
Format: Flac + Log + Cue + Covers
Size: 275 Mb

Tracklist:
1. Le fils de la haine 03:45
2. Sacrifice 03:00
3. Rosalind 05:40
4. Pense à ton suicide 03:40
5. Au nom du rock'n'roll 03:25
6. Killers 04:50
7. Mercenaire 02:20
8. Le magicien d'Oz 04:50
9. Heavy metal 04:00
10. Chevaliers du déshonneur 03:30
11. Ahachtachta Chtilabeh!!! 00:25

LOG
Exact Audio Copy V0.99 prebeta 5 from 4. May 2009

EAC extraction logfile from 9. April 2011, 16:34

Killers / ...Fils De La Haine

Used drive : PIONEER DVD-RW DVR-116D Adapter: 0 ID: 0

Read mode : Secure
Utilize accurate stream : Yes
Defeat audio cache : Yes
Make use of C2 pointers : No

Read offset correction : 96
Overread into Lead-In and Lead-Out : No
Fill up missing offset samples with silence : Yes
Delete leading and trailing silent blocks : No
Null samples used in CRC calculations : Yes
Used interface : Native Win32 interface for Win NT & 2000

Used output format : User Defined Encoder
Selected bitrate : 32 kBit/s
Quality : High
Add ID3 tag : No
Command line compressor : C:\Program Files\Exact Audio Copy\Flac\flac.exe
Additional command line options : -6 -V %s


TOC of the extracted CD

Track | Start | Length | Start sector | End sector
---------------------------------------------------------
1 | 0:00.00 | 3:43.48 | 0 | 16772
2 | 3:43.48 | 3:02.57 | 16773 | 30479
3 | 6:46.30 | 5:36.38 | 30480 | 55717
4 | 12:22.68 | 3:37.44 | 55718 | 72036
5 | 16:00.37 | 3:23.17 | 72037 | 87278
6 | 19:23.54 | 4:47.19 | 87279 | 108822
7 | 24:10.73 | 2:19.69 | 108823 | 119316
8 | 26:30.67 | 4:50.59 | 119317 | 141125
9 | 31:21.51 | 4:00.60 | 141126 | 159185
10 | 35:22.36 | 3:28.15 | 159186 | 174800
11 | 38:50.51 | 0:22.00 | 174801 | 176450


Range status and errors

Selected range

Filename D:\Музыка\Lossless\Killers - ... Fils De La Haine (1985)\Killers - ...Fils De La Haine.wav

Peak level 98.8 %
Range quality 99.9 %
Copy CRC 3248C9EA
Copy OK

No errors occurred


AccurateRip summary

Track 1 cannot be verified as accurate (confidence 2) [011A661E], AccurateRip returned [73E31BEC]
Track 2 cannot be verified as accurate (confidence 2) [E94D9359], AccurateRip returned [69EA2D61]
Track 3 cannot be verified as accurate (confidence 2) [839BEF22], AccurateRip returned [67BD56FC]
Track 4 cannot be verified as accurate (confidence 2) [3412FBAC], AccurateRip returned [1B89F927]
Track 5 cannot be verified as accurate (confidence 2) [A856CD32], AccurateRip returned [5E81822E]
Track 6 cannot be verified as accurate (confidence 2) [5ECFA25E], AccurateRip returned [97B4FCB7]
Track 7 cannot be verified as accurate (confidence 2) [70AE102E], AccurateRip returned [B92A3EBE]
Track 8 cannot be verified as accurate (confidence 2) [6CBDE3A3], AccurateRip returned [C3DEF425]
Track 9 cannot be verified as accurate (confidence 2) [74D84BEC], AccurateRip returned [FF072A07]
Track 10 cannot be verified as accurate (confidence 2) [C4FFD919], AccurateRip returned [B92C8530]
Track 11 cannot be verified as accurate (confidence 2) [966ABD5B], AccurateRip returned [9D9B9F85]

No tracks could be verified as accurate
You may have a different pressing from the one(s) in the database

End of status report

CUE
REM GENRE "Speed Metal"
REM DATE 1985
REM DISCID 8809300B
REM COMMENT "ExactAudioCopy v0.99pb5"
PERFORMER "Killers"
TITLE "...Fils De La Haine"
FILE "Killers - ...Fils De La Haine.flac" WAVE
TRACK 01 AUDIO
TITLE "Le Fils De La Haine"
PERFORMER "Killers"
FLAGS DCP
INDEX 01 00:00:00
TRACK 02 AUDIO
TITLE "Sacrifice"
PERFORMER "Killers"
FLAGS DCP
INDEX 00 03:41:48
INDEX 01 03:43:48
TRACK 03 AUDIO
TITLE "Rosalind"
PERFORMER "Killers"
FLAGS DCP
INDEX 00 06:44:30
INDEX 01 06:46:30
TRACK 04 AUDIO
TITLE "Pense A Ton Suicide"
PERFORMER "Killers"
FLAGS DCP
INDEX 00 12:20:68
INDEX 01 12:22:68
TRACK 05 AUDIO
TITLE "Au Nom Du Rock 'N' Roll"
PERFORMER "Killers"
FLAGS DCP
INDEX 00 15:58:37
INDEX 01 16:00:37
TRACK 06 AUDIO
TITLE "Killers"
PERFORMER "Killers"
FLAGS DCP
INDEX 00 19:21:54
INDEX 01 19:23:54
TRACK 07 AUDIO
TITLE "Mercenaire"
PERFORMER "Killers"
FLAGS DCP
INDEX 00 24:08:73
INDEX 01 24:10:73
TRACK 08 AUDIO
TITLE "Le Magicien d'Oz"
PERFORMER "Killers"
FLAGS DCP
INDEX 00 26:28:67
INDEX 01 26:30:67
TRACK 09 AUDIO
TITLE "Heavy Metal"
PERFORMER "Killers"
FLAGS DCP
INDEX 00 31:19:51
INDEX 01 31:21:51
TRACK 10 AUDIO
TITLE "Chevaliers Du Deshonneur"
PERFORMER "Killers"
FLAGS DCP
INDEX 00 35:20:36
INDEX 01 35:22:36
TRACK 11 AUDIO
TITLE "Ahachtachta Chtilabeh !!!"
PERFORMER "Killers"
FLAGS DCP
INDEX 00 38:48:51
INDEX 01 38:50:51

Spectrum
Image


Narod.Ru

Это по ходу дела переиздание, которое делала сама группа, поскольку опознавательных знаков какого-либо лейбла я не нашёл, но брал с официалки.


Top
 Profile E-mail  
 
 
PostPosted: 19 Apr 2011 
Прокъмитолист
User avatar
Joined: 12 Aug 2007
Posts: 6649
Lоcаtion: Санктъ-Петербуркъ
Age: 52
Name: Олекъ
на всякий случай и тут спасибо :crazy: :true:

_________________
прокъметол - это музыко, от которово есть прок (ы)


Top
 Profile  
 
 
PostPosted: 19 Apr 2011 
Работнечег
User avatar
Joined: 28 Aug 2007
Posts: 6086
Lоcаtion: г. Москва
Age: 30
Name: Дима
чего-то расплодил я тем... :crazy:


Top
 Profile E-mail  
 
 
PostPosted: 29 May 2011 
Хиппей (support team)
User avatar
Joined: 30 Jul 2007
Posts: 116004
Lоcаtion: Киев (Kyiv, UA)
Age: 46
Name: Andrey
:thanx:

mirror: MultiUp l Narod

_________________


Top
 Profile E-mail  
 
 
PostPosted: 29 May 2011 
Я набрал 1000 сообщений!
User avatar
Joined: 25 Dec 2008
Posts: 1545
Age: 44
Name: Павел
church wrote:
по ходу дела переиздание, которое делала сама группа

Да вроде Brennus. :umnik:


Top
 Profile  
 
 
PostPosted: 27 Jun 2011 
Работнечег
User avatar
Joined: 28 Aug 2007
Posts: 6086
Lоcаtion: г. Москва
Age: 30
Name: Дима
Killers - 1989 - Resistances (reissued In 1997)

Image

Band: Killers
Album: Resistances
Label: Brennus Records
Genre: Speed Metal
Country: France
Format: Flac + Log + Cue + Covers
Size: 250 Mb

Line-Up:
Bruno Dolheguy — Guitars
Philippe Borda — Drums
François Merle — Guitars
Serge Pujos — Vocals
René Chavin — Bass


Tracklist:
1. Vengeance 05:10
2. Prisonnier 04:50
3. Rêves Secrets 04:35
4. Résistances 04:35
5. Métamorphose 03:30
6. Soleil Noir 03:45
7. Clandestinité 04:15
8. Roi du Speed 02:55
9. Longue Vie au Metal 02:55

LOG
Exact Audio Copy V0.99 prebeta 5 from 4. May 2009

EAC extraction logfile from 19. June 2011, 15:04

Killers / Resistances

Used drive : PIONEER DVD-RW DVR-116D Adapter: 0 ID: 0

Read mode : Secure
Utilize accurate stream : Yes
Defeat audio cache : Yes
Make use of C2 pointers : No

Read offset correction : 96
Overread into Lead-In and Lead-Out : No
Fill up missing offset samples with silence : Yes
Delete leading and trailing silent blocks : No
Null samples used in CRC calculations : Yes
Used interface : Native Win32 interface for Win NT & 2000

Used output format : User Defined Encoder
Selected bitrate : 32 kBit/s
Quality : High
Add ID3 tag : No
Command line compressor : C:\Program Files\Exact Audio Copy\Flac\flac.exe
Additional command line options : -6 -V %s


TOC of the extracted CD

Track | Start | Length | Start sector | End sector
---------------------------------------------------------
1 | 0:00.00 | 5:01.02 | 0 | 22576
2 | 5:01.02 | 4:47.60 | 22577 | 44161
3 | 9:48.62 | 4:38.00 | 44162 | 65011
4 | 14:26.62 | 4:39.70 | 65012 | 86006
5 | 19:06.57 | 3:33.45 | 86007 | 102026
6 | 22:40.27 | 3:44.43 | 102027 | 118869
7 | 26:24.70 | 4:16.22 | 118870 | 138091
8 | 30:41.17 | 2:56.08 | 138092 | 151299
9 | 33:37.25 | 2:55.25 | 151300 | 164449


Range status and errors

Selected range

Filename D:\Музыка\Lossless\Killers - Resistances (1989) (Reissued In 1997)\Killers - Resistances.wav

Peak level 97.7 %
Range quality 99.9 %
Copy CRC 43ED8112
Copy OK

No errors occurred


AccurateRip summary

Track 1 not present in database
Track 2 not present in database
Track 3 not present in database
Track 4 not present in database
Track 5 not present in database
Track 6 not present in database
Track 7 not present in database
Track 8 not present in database
Track 9 not present in database

None of the tracks are present in the AccurateRip database

End of status report

CUE
REM GENRE "Speed Metal"
REM DATE 1989
REM DISCID 76089009
REM COMMENT "ExactAudioCopy v0.99pb5"
PERFORMER "Killers"
TITLE "Resistances"
FILE "Killers - Resistances.flac" WAVE
TRACK 01 AUDIO
TITLE "Vengeance"
PERFORMER "Killers"
FLAGS DCP
INDEX 01 00:00:00
TRACK 02 AUDIO
TITLE "Prisonnier"
PERFORMER "Killers"
FLAGS DCP
INDEX 01 05:01:02
TRACK 03 AUDIO
TITLE "Reves Secrets"
PERFORMER "Killers"
FLAGS DCP
INDEX 01 09:48:62
TRACK 04 AUDIO
TITLE "Resistances"
PERFORMER "Killers"
FLAGS DCP
INDEX 01 14:26:62
TRACK 05 AUDIO
TITLE "Metamorphose"
PERFORMER "Killers"
FLAGS DCP
INDEX 01 19:06:57
TRACK 06 AUDIO
TITLE "Soleil Noir"
PERFORMER "Killers"
FLAGS DCP
INDEX 01 22:40:27
TRACK 07 AUDIO
TITLE "Clandestinite"
PERFORMER "Killers"
FLAGS DCP
INDEX 01 26:24:70
TRACK 08 AUDIO
TITLE "Roi du Speed"
PERFORMER "Killers"
FLAGS DCP
INDEX 01 30:41:17
TRACK 09 AUDIO
TITLE "Longue Vie au Metal"
PERFORMER "Killers"
FLAGS DCP
INDEX 01 33:37:25


F

Из прослушанных/переслушанных за недавнее время первых 4х альбомов и Fort Interieur - этот на мой взгляд является самым сильным. Особенно Clandestinite понравилась :true:


Last edited by church on 08 Jun 2013, edited 1 time in total.

Top
 Profile E-mail  
 
 
PostPosted: 27 Jun 2011 
Работнечег
User avatar
Joined: 28 Aug 2007
Posts: 6086
Lоcаtion: г. Москва
Age: 30
Name: Дима
Не, Паш, не бреннус. у меня дисков 6-7 Killers, этот явно выделяется от остальных, как по буклету, так и по отсутствию опознавательных знаков. На бреннусовских дисках сбоку всегда пишется а-ля BR 8015 AR, не знаю как это по-научному называется, а тут нет ничего. На старой версии метал-архивов было написано, что помимо Reissued by Brennus In 1997, Released as MAD... in 2008, чего-то вроде того. Думаю, что тираж бреннусовский закончился и группа переиздала сама, очень похоже на это)
P.S. и бумага такая бюджетная в буклетике, тоненькая))


Top
 Profile E-mail  
 
 
PostPosted: 27 Jun 2011 
Прокъмитолист
User avatar
Joined: 12 Aug 2007
Posts: 6649
Lоcаtion: Санктъ-Петербуркъ
Age: 52
Name: Олекъ
утащу в копилочку и такой рип еще. спасибо, Димка! :thanx:

_________________
прокъметол - это музыко, от которово есть прок (ы)


Top
 Profile  
 
Display posts from previous:  Sort by  
Post new topic Reply to topic  [ 230 posts ]  Go to page Previous  1 ... 3, 4, 5, 6, 7, 8, 9 ... 12  Next

All times are UTC + 3 hours


Who is online

Users browsing this forum: No registered users and 2 guests


You cannot post new topics in this forum
You cannot reply to topics in this forum
You cannot edit your posts in this forum
You cannot delete your posts in this forum
You cannot post attachments in this forum

Search for:
Яндекс.Метрика
Powered by phpBB © 2000, 2002, 2005, 2007 phpBB Group