\m/ 80's metal \m/

Информационно-аналитический форум "80 см пыли" (In Search We Trust) "У нас никто никуда не спешит"
Me For You - http://me-4u.com
It is currently 19 Oct 2019

All times are UTC + 3 hours

Spoiler
Chat - temporary registration for foreign users (please leave your application here)







Post new topic Reply to topic  [ 23 posts ]  Go to page 1, 2  Next
Author Message
 
PostPosted: 16 Dec 2009 
Работнечег
User avatar
Joined: 28 Aug 2007
Posts: 6035
Lоcаtion: г. Москва
Age: 30
Name: Дима
Image

Band: Killers
Album: Mise Aux Poings (1987) (Reissued In 1997)
Label: Brennus
Genre: Speed Metal
Country: France
Format: Flac + Log + Cue + Covers
Size: 237 Mb

Tracklist:
1. Rockstar Limite 03:45
2. Un Autre Piège 03:55
3. Illusion 04:05
4. Loin de Nous Tous 04:50
5. Show Business 03:45
6. Danger de Vie 03:45
7. Les Fleurs du Mal 03:50
8. Seul 04:50
Total playing time 32:45

LOG
Exact Audio Copy V0.99 prebeta 5 from 4. May 2009

Отчёт EAC об извлечении, выполненном 9. декабря 2009, 16:07

Killers / Mise Aux Poings

Дисковод: PIONEER DVD-RW DVR-116D Adapter: 0 ID: 0

Режим чтения : Достоверность
Использование точного потока : Да
Отключение кэша аудио : Да
Использование указателей C2 : Нет

Коррекция смещения при чтении : 96
Способность читать области Lead-in и Lead-out : Нет
Заполнение пропущенных сэмплов тишиной : Да
Удаление блоков с тишиной в начале и конце : Нет
При вычислениях CRC использовались нулевые сэмплы : Да
Интерфейс : Встроенный Win32-интерфейс для Win NT/2000

Выходной формат : Пользовательский кодировщик
Выбранный битрейт : 32 kBit/s
Качество : Высокий
Добавление ID3-тэга : Нет
Утилита сжатия : C:\Program Files\Exact Audio Copy\Flac\flac.exe
Дополнительные параметры : -6 -V %s


TOC извлечённого CD

Трек | Старт | Длительность | Начальный сектор | Конечный сектор
---------------------------------------------------------------------
1 | 0:00.32 | 3:41.48 | 32 | 16654
2 | 3:42.05 | 3:54.72 | 16655 | 34276
3 | 7:37.02 | 4:03.45 | 34277 | 52546
4 | 11:40.47 | 4:59.68 | 52547 | 75039
5 | 16:40.40 | 3:48.70 | 75040 | 92209
6 | 20:29.35 | 3:53.02 | 92210 | 109686
7 | 24:22.37 | 3:51.35 | 109687 | 127046
8 | 28:13.72 | 4:50.25 | 127047 | 148821


Характеристики диапазона извлечения и сообщения об ошибках

Выбранный диапазон

Имя файла D:\Музыка\Lossless\Killers - Mise Aux Poings (1987)\Killers - Mise Aux Poings.wav

Пиковый уровень 100.0 %
Качество диапазона 99.9 %
CRC копии 0874644A
Копирование... OK

Ошибок не произошло


AccurateRip: сводка

Трек 1 нет в базе данных
Трек 2 нет в базе данных
Трек 3 нет в базе данных
Трек 4 нет в базе данных
Трек 5 нет в базе данных
Трек 6 нет в базе данных
Трек 7 нет в базе данных
Трек 8 нет в базе данных

Ни одного трека нет в базе AccurateRip

Конец отчёта

Spectrum
Image

CUE
REM GENRE "Speed Metal"
REM DATE 1987
REM DISCID 5307C008
REM COMMENT "ExactAudioCopy v0.99pb5"
PERFORMER "Killers"
TITLE "Mise Aux Poings"
FILE "Killers - Mise Aux Poings.flac" WAVE
TRACK 01 AUDIO
TITLE "Rockstar limite"
PERFORMER "Killers"
INDEX 00 00:00:00
INDEX 01 00:00:32
TRACK 02 AUDIO
TITLE "Un autre piиge"
PERFORMER "Killers"
INDEX 00 03:38:10
INDEX 01 03:42:05
TRACK 03 AUDIO
TITLE "Illusion"
PERFORMER "Killers"
INDEX 00 07:32:37
INDEX 01 07:37:02
TRACK 04 AUDIO
TITLE "Loin de nous tous"
PERFORMER "Killers"
INDEX 01 11:40:47
TRACK 05 AUDIO
TITLE "Show business"
PERFORMER "Killers"
INDEX 00 16:36:30
INDEX 01 16:40:40
TRACK 06 AUDIO
TITLE "Danger de vie"
PERFORMER "Killers"
INDEX 00 20:26:67
INDEX 01 20:29:35
TRACK 07 AUDIO
TITLE "Les fleurs du mal"
PERFORMER "Killers"
INDEX 00 24:18:25
INDEX 01 24:22:37
TRACK 08 AUDIO
TITLE "Seul"
PERFORMER "Killers"
INDEX 00 28:11:15
INDEX 01 28:13:72

Narod.ru


Top
 Profile E-mail  
 
 
PostPosted: 16 Dec 2009 
Прокъмитолист
User avatar
Joined: 12 Aug 2007
Posts: 6625
Lоcаtion: Санктъ-Петербуркъ
Age: 52
Name: Олекъ
:true: спасибо, Дим! :thanx:

_________________
прокъметол - это музыко, от которово есть прок (ы)


Top
 Profile  
 
 
PostPosted: 17 Dec 2009 
А может смените мне статус?..
Joined: 03 Jul 2009
Posts: 885
Lоcаtion: Serbia
Name: Laki
Thanks. Great upload


Top
 Profile E-mail  
 
 
PostPosted: 17 Dec 2009 
Почётный металлург
User avatar
Joined: 15 Sep 2007
Posts: 4358
Lоcаtion: Хабаровск
Age: 59
Name: чуть выше
:thanx:

_________________
Коль будешь людей ты ослами честить,
тебе человеком меж них не прослыть!
(Саади, персидский поэт, 13в.)


Top
 Profile  
 
 
PostPosted: 17 Dec 2009 
Хиппей (support team)
User avatar
Joined: 30 Jul 2007
Posts: 114929
Lоcаtion: Киев (Kyiv, UA)
Age: 46
Name: Andrey
Спасибо! :true:

_________________


Top
 Profile E-mail  
 
 
PostPosted: 17 Dec 2009 
Power Metal Maniac
User avatar
Joined: 09 Aug 2008
Posts: 6915
Lоcаtion: Москва
Age: 41
Name: Егор
:thanx:

_________________
Long Live Metal!


Top
 Profile  
 
 
PostPosted: 17 Dec 2009 
5-speed satisfactor
User avatar
Joined: 16 Feb 2009
Posts: 3774
Lоcаtion: New York, USA
Age: 41
Name: Leonid
:thanx:

_________________
Death rules! Metal to all who oppose!


Top
 Profile  
 
 
PostPosted: 17 Dec 2009 
Я набрал 1000 сообщений!
User avatar
Joined: 25 Dec 2008
Posts: 1545
Age: 44
Name: Павел
Ура!Спасибо! :true:


Top
 Profile  
 
 
PostPosted: 17 Dec 2009 
А может смените мне статус?..
User avatar
Joined: 24 Dec 2008
Posts: 648
Age: 45
Name: Дмитрий
:dance:


Top
 Profile  
 
 
PostPosted: 18 Dec 2009 
Пионэръ
Joined: 07 Apr 2009
Posts: 31
Lоcаtion: Deutschland
Age: 56
Name: Eric
chapeau! :shok:


Top
 Profile  
 
 
PostPosted: 18 Dec 2009 
хард н хэвщик (support team)
User avatar
Joined: 02 Jun 2008
Posts: 16881
Lоcаtion: Н.Новгород
Age: 32
Name: Артем
хм, неужто такой популярный бэнд :vic: тем более лирика на францзуском :scratch:


Top
 Profile  
 
 
PostPosted: 18 Dec 2009 
Power Metal Maniac
User avatar
Joined: 09 Aug 2008
Posts: 6915
Lоcаtion: Москва
Age: 41
Name: Егор
McKagan
вообще, культовая группа, одни из первых во Франции, наряду с ADX, кто начали Speed исполнять. Но вот лоси первых альбомов - я раньше не встречал. Насчет лирики - мне пофиг на язык (главное, не по-русски), да и у них и англоязычные альбомы есть.

_________________
Long Live Metal!


Top
 Profile  
 
 
PostPosted: 18 Dec 2009 
Генеральный thrasher
User avatar
Joined: 03 Oct 2008
Posts: 3741
Lоcаtion: Ханты-Мансийский АО
Age: 44
Name: Сергей
Мне нравится группа.Да и вообще начинаю понимать , благодаря форуму ,что был металл во Франции в 80-х годах и весьма незаурядный!


Top
 Profile  
 
 
PostPosted: 10 Jan 2010 
Я набрал 1000 сообщений!
User avatar
Joined: 02 Feb 2009
Posts: 1000
Lоcаtion: из Тулы
Age: 45
Name: Максим
спасибо огромное ребяты
обыскался
вот ведь чудо так чудо

_________________
КМА


Top
 Profile  
 
 
PostPosted: 18 Mar 2010 
Thrasher
User avatar
Joined: 07 Oct 2007
Posts: 2782
Lоcаtion: Russia, Moscow
Age: 35
Name: Drunk & Evil
Спасибо! :true: :thanx:

_________________
ВОДКА, БАБЫ И БЛЮЗ / 40° till death... :bodun:
One time we saw some hookers, but when we got closer, we realised it was Mötley Crüe. ©


Top
 Profile  
 
 
PostPosted: 28 Oct 2010 
Труъ
User avatar
Joined: 05 Oct 2008
Posts: 194
Lоcаtion: Saint Petersburg
Age: 46
Name: Jesse
И от меня огромное mercy!


Top
 Profile  
 
 
PostPosted: 25 Nov 2012 
Работнечег
User avatar
Joined: 28 Aug 2007
Posts: 6035
Lоcаtion: г. Москва
Age: 30
Name: Дима
http://s018.radikal.ru/i512/1211/b6/8cf8f604982f.jpg
Не был здесь добавлен скан самого диска, попросили недавно сделать, вот выкладываю, может и тут кому пригодится (2)


Top
 Profile E-mail  
 
 
PostPosted: 26 Nov 2012 
консэрваторъ
User avatar
Joined: 11 Aug 2007
Posts: 17308
Lоcаtion: Псков
Age: 45
Name: Сергей
church wrote:
может и тут кому пригодится

Тут бы теперь и фронт-ковер в первом посте для красоты пригодился Дим... :oops:

_________________
THRASH 'EM ALL


Top
 Profile E-mail  
 
 
PostPosted: 02 Dec 2012 
Работнечег
User avatar
Joined: 28 Aug 2007
Posts: 6035
Lоcаtion: г. Москва
Age: 30
Name: Дима
church wrote:
может и тут кому пригодится

Тут бы теперь и фронт-ковер в первом посте для красоты пригодился Дим... :oops:

Чего ради красоты не сделаешь :crazy:


Top
 Profile E-mail  
 
 
PostPosted: 02 Dec 2012 
Генеральный thrasher
User avatar
Joined: 03 Oct 2008
Posts: 3741
Lоcаtion: Ханты-Мансийский АО
Age: 44
Name: Сергей
Димка,ты наверное все альбомы Killers собрал?


Top
 Profile  
 
Display posts from previous:  Sort by  
Post new topic Reply to topic  [ 23 posts ]  Go to page 1, 2  Next

All times are UTC + 3 hours


Who is online

Users browsing this forum: No registered users and 1 guest


You cannot post new topics in this forum
You cannot reply to topics in this forum
You cannot edit your posts in this forum
You cannot delete your posts in this forum
You cannot post attachments in this forum

Search for:
Яндекс.Метрика
Powered by phpBB © 2000, 2002, 2005, 2007 phpBB Group