\m/ 80's metal \m/

Информационно-аналитический форум "80 см пыли" (In Search We Trust) "У нас никто никуда не спешит"
Me For You - http://me-4u.com
It is currently 19 May 2019

All times are UTC + 3 hours

Spoiler
Chat - temporary registration for foreign users (please leave your application here)







Post new topic Reply to topic  [ 24 posts ]  Go to page Previous  1, 2
Author Message
 
PostPosted: 31 May 2010 
metallpaparazzy
User avatar
Joined: 20 Dec 2009
Posts: 674
Lоcаtion: Днепропетровск
Age: 44
Name: Геннадий
:thanx:
первый понравился, прибег за вторым. :meloman:
overkiller wrote:
правда нету сканов

может, кто-нибудь закинет отдельно? :oops: для испытания полного оргазма :crazy:


Top
 Profile E-mail  
 
 
PostPosted: 25 Feb 2012 
Генеральный thrasher
User avatar
Joined: 03 Oct 2008
Posts: 3705
Lоcаtion: Ханты-Мансийский АО
Age: 44
Name: Сергей
Перезалил "Crusaders" с собственного диска.Flac+Cue+Log+Full Scans

Crusaders

Cue
REM GENRE "Heavy Metal"
REM DATE 1991
REM DISCID 8D09620A
REM COMMENT "ExactAudioCopy v0.99pb5"
PERFORMER "Kreyson"
TITLE "Crusaders"
FILE "Kreyson - Crusaders.flac" WAVE
TRACK 01 AUDIO
TITLE "Pilgrimage"
PERFORMER "Kreyson"
INDEX 01 00:00:00
TRACK 02 AUDIO
TITLE "Crusaders"
PERFORMER "Kreyson"
INDEX 01 02:47:23
TRACK 03 AUDIO
TITLE "Commandments"
PERFORMER "Kreyson"
INDEX 00 08:02:27
INDEX 01 08:04:03
TRACK 04 AUDIO
TITLE "No bad thing"
PERFORMER "Kreyson"
INDEX 00 11:45:20
INDEX 01 11:46:68
TRACK 05 AUDIO
TITLE "Still"
PERFORMER "Kreyson"
INDEX 00 16:09:23
INDEX 01 16:10:73
TRACK 06 AUDIO
TITLE "Stay a moment"
PERFORMER "Kreyson"
INDEX 00 20:13:48
INDEX 01 20:15:23
TRACK 07 AUDIO
TITLE "Forgiveness"
PERFORMER "Kreyson"
INDEX 00 23:58:64
INDEX 01 24:00:40
TRACK 08 AUDIO
TITLE "Cries"
PERFORMER "Kreyson"
INDEX 00 27:23:33
INDEX 01 27:25:10
TRACK 09 AUDIO
TITLE "Give me hope"
PERFORMER "Kreyson"
INDEX 00 32:20:67
INDEX 01 32:22:43
TRACK 10 AUDIO
TITLE "The Prisoner"
PERFORMER "Kreyson"
INDEX 00 35:44:05
INDEX 01 35:45:55


Log
Exact Audio Copy V0.99 prebeta 5 from 4. May 2009

Отчёт EAC об извлечении, выполненном 22. февраля 2012, 8:57

Kreyson / Crusaders

Дисковод: TSSTcorpCDDVDW SH-S202N Adapter: 0 ID: 1

Режим чтения : Достоверность
Использование точного потока : Да
Отключение кэша аудио : Да
Использование указателей C2 : Нет

Коррекция смещения при чтении : 6
Способность читать области Lead-in и Lead-out : Нет
Заполнение пропущенных сэмплов тишиной : Да
Удаление блоков с тишиной в начале и конце : Нет
При вычислениях CRC использовались нулевые сэмплы : Да
Интерфейс : Встроенный Win32-интерфейс для Win NT/2000

Выходной формат : Пользовательский кодировщик
Выбранный битрейт : 768 kBit/s
Качество : Высокий
Добавление ID3-тэга : Нет
Утилита сжатия : C:\Program Files\Exact Audio Copy\FLAC\FLAC.EXE
Дополнительные параметры : -6 -V -T "ARTIST=%a" -T "TITLE=%t" -T "ALBUM=%g" -T "DATE=%y" -T "TRACKNUMBER=%n" -T "GENRE=%m" -T "COMMENT=%e" %s -o %d


TOC извлечённого CD

Трек | Старт | Длительность | Начальный сектор | Конечный сектор
---------------------------------------------------------------------
1 | 0:00.00 | 2:47.23 | 0 | 12547
2 | 2:47.23 | 5:16.55 | 12548 | 36302
3 | 8:04.03 | 3:42.65 | 36303 | 53017
4 | 11:46.68 | 4:24.05 | 53018 | 72822
5 | 16:10.73 | 4:04.25 | 72823 | 91147
6 | 20:15.23 | 3:45.17 | 91148 | 108039
7 | 24:00.40 | 3:24.45 | 108040 | 123384
8 | 27:25.10 | 4:57.33 | 123385 | 145692
9 | 32:22.43 | 3:23.12 | 145693 | 160929
10 | 35:45.55 | 4:17.13 | 160930 | 180217


Характеристики диапазона извлечения и сообщения об ошибках

Выбранный диапазон

Имя файла E:\Лоси\K\Kreyson - Crusaders.wav

Пиковый уровень 100.0 %
Качество диапазона 100.0 %
CRC копии 1383A589
Копирование... OK

Ошибок не произошло


AccurateRip: сводка

Трек 1 точность не определена (достоверность 1) [60F9B59A], AccurateRip вернул [024AEB6B]
Трек 2 точность не определена (достоверность 1) [4BD276D6], AccurateRip вернул [17C6B6C9]
Трек 3 точность не определена (достоверность 1) [A7B46FE9], AccurateRip вернул [B9CA1D04]
Трек 4 точность не определена (достоверность 1) [73DD41F3], AccurateRip вернул [B5B6B52C]
Трек 5 точность не определена (достоверность 1) [082A46AB], AccurateRip вернул [60752AE9]
Трек 6 точность не определена (достоверность 1) [3DED9EA4], AccurateRip вернул [7DC1635D]
Трек 7 точность не определена (достоверность 1) [6CA194DD], AccurateRip вернул [45A69809]
Трек 8 точность не определена (достоверность 1) [4AC1F555], AccurateRip вернул [A37C8366]
Трек 9 точность не определена (достоверность 1) [AFC48A42], AccurateRip вернул [6A21C62D]
Трек 10 точность не определена (достоверность 1) [C846B335], AccurateRip вернул [50AFE2CC]

Ни один трек не прошёл проверки на точность
В вашей базе может быть иной вариант штамповки диска

Конец отчёта


Spectrum
Image


Top
 Profile  
 
 
PostPosted: 25 Feb 2012 
Работнечег
User avatar
Joined: 28 Aug 2007
Posts: 5838
Lоcаtion: г. Москва
Age: 30
Name: Дима
Спасибо, Серег! А я до кучи может с японцев рипы сделаю!


Top
 Profile E-mail  
 
 
PostPosted: 26 Mar 2012 
Хиппей (support team)
User avatar
Joined: 30 Jul 2007
Posts: 112537
Lоcаtion: Киев (Kyiv, UA)
Age: 45
Name: Andrey
thorbeorn wrote:
Перезалил "Crusaders" с собственного диска.Flac+Cue+Log+Full Scans

:thanx:

mirror: Speedy l Narod

_________________


Top
 Profile E-mail  
 
Display posts from previous:  Sort by  
Post new topic Reply to topic  [ 24 posts ]  Go to page Previous  1, 2

All times are UTC + 3 hours


Who is online

Users browsing this forum: No registered users and 2 guests


You cannot post new topics in this forum
You cannot reply to topics in this forum
You cannot edit your posts in this forum
You cannot delete your posts in this forum
You cannot post attachments in this forum

Search for:
Яндекс.Метрика
Powered by phpBB © 2000, 2002, 2005, 2007 phpBB Group