\m/ 80's metal \m/

Информационно-аналитический форум "80 см пыли" (In Search We Trust) "У нас никто никуда не спешит"
Me For You - http://me-4u.com
It is currently 17 Oct 2019

All times are UTC + 3 hours

Spoiler
Chat - temporary registration for foreign users (please leave your application here)







Post new topic Reply to topic  [ 72 posts ]  Go to page Previous  1, 2, 3, 4
Author Message
 
PostPosted: 17 Apr 2011 
хард н хэвщик (support team)
User avatar
Joined: 02 Jun 2008
Posts: 16881
Lоcаtion: Н.Новгород
Age: 32
Name: Артем
ага :oops:


Top
 Profile  
 
 
PostPosted: 17 Apr 2011 
Прокъмитолист
User avatar
Joined: 12 Aug 2007
Posts: 6623
Lоcаtion: Санктъ-Петербуркъ
Age: 51
Name: Олекъ
MetaLWarrioR wrote:
Что же случилось?!

да ничего не случилось. Артем просто еще "немножко" в армии :pardon:
ну и просто интересно, а что за спешка вдруг? :oops:

_________________
прокъметол - это музыко, от которово есть прок (ы)


Top
 Profile  
 
 
PostPosted: 17 Apr 2011 
Труъ
Joined: 01 Jan 2010
Posts: 118
Lоcаtion: MetaLWarrioR
Name: Сергей
spiralarch wrote:
ну и просто интересно, а что за спешка вдруг?

Да спешки как таковой нет, просто я даже подумать не мог, что фраза "приду домой", подразумевает "дембель".
Я думал придет с работы или еще от куда-то, потому и спросил что случилось!
McKagan
А откуда возможность посещения интернета в армии!
spiralarch
А у тебя нет этих альбомов?


Top
 Profile E-mail  
 
 
PostPosted: 18 Apr 2011 
Прокъмитолист
User avatar
Joined: 12 Aug 2007
Posts: 6623
Lоcаtion: Санктъ-Петербуркъ
Age: 51
Name: Олекъ
MetaLWarrioR wrote:
А у тебя нет этих альбомов?

вроде должны быть, но на винтах не нашел. а перерывать архивы - быстрее Артем дембельнется :umnik:

_________________
прокъметол - это музыко, от которово есть прок (ы)


Top
 Profile  
 
 
PostPosted: 18 Apr 2011 
Персональный статус
Joined: 02 Apr 2010
Posts: 223
Name: Андрей
MetaLWarrioR wrote:
McKagan
А откуда возможность посещения интернета в армии!


Хе, мне это вот тоже давно интересно. :crazy:

------------------------------------------------------------------

Keel - 1986 - The Final Frontier

Attachment:
front.jpg
front.jpg [ 1015 KiB | Viewed 223 times ]

Attachment:
back.jpg
back.jpg [ 1017.04 KiB | Viewed 202 times ]


Genre: Heavy Metal
Location: USA
Format: ape+cue+log+covers
Size: 222 Mb


iFolder l MultiUp l Narod

log
Exact Audio Copy V0.99 prebeta 4 from 23. January 2008

Отчёт EAC об извлечении, выполненном 30. декабря 2009, 20:59

Keel / The Final Frontier

Дисковод: PIONEER DVD-RW DVR-112D Adapter: 1 ID: 1

Режим чтения : Достоверность
Использование точного потока : Да
Отключение кэша аудио : Да
Использование указателей C2 : Нет

Коррекция смещения при чтении : 48
Способность читать области Lead-in и Lead-out : Нет
Заполнение пропущенных сэмплов тишиной : Да
Удаление блоков с тишиной в начале и конце : Нет
При вычислениях CRC использовались нулевые сэмплы : Нет
Интерфейс : Встроенный Win32-интерфейс для Win NT/2000

Выходной формат : Monkey's Audio (без потерь)
Выбранный битрейт : High Lossless Compression
Качество : Высокий
Добавление ID3-тэга : Да
Утилита сжатия : D:\Music Programs\Monkey's Audio\Mac.exe


TOC извлечённого CD

Трек | Старт | Длительность | Начальный сектор | Конечный сектор
---------------------------------------------------------------------
1 | 0:00.00 | 3:55.15 | 0 | 17639
2 | 3:55.15 | 4:48.15 | 17640 | 39254
3 | 8:43.30 | 3:49.15 | 39255 | 56444
4 | 12:32.45 | 4:06.20 | 56445 | 74914
5 | 16:38.65 | 3:11.35 | 74915 | 89274
6 | 19:50.25 | 3:12.50 | 89275 | 103724
7 | 23:03.00 | 3:15.30 | 103725 | 118379
8 | 26:18.30 | 4:22.70 | 118380 | 138099
9 | 30:41.25 | 1:52.70 | 138100 | 146569
10 | 32:34.20 | 3:49.65 | 146570 | 163809


Характеристики диапазона извлечения и сообщения об ошибках

Выбранный диапазон

Имя файла G:\Rip\Keel -86TFF\Keel - The Final Frontier.wav

Пиковый уровень 70.2 %
Качество диапазона 100.0 %
CRC копии C8882EDC
Копирование... OK

Ошибок не произошло

Конец отчёта


cue
REM GENRE Rock
REM DATE 1986
REM DISCID 7C08880A
REM COMMENT "ExactAudioCopy v0.99pb4"
PERFORMER "Keel"
TITLE "The Final Frontier"
FILE "Keel - The Final Frontier.ape" WAVE
TRACK 01 AUDIO
TITLE "Teh Final Frontier"
PERFORMER "Keel"
FLAGS DCP
INDEX 01 00:00:00
TRACK 02 AUDIO
TITLE "Rock And Roll Animal"
PERFORMER "Keel"
FLAGS DCP
INDEX 01 03:55:15
TRACK 03 AUDIO
TITLE "Because The Night"
PERFORMER "Keel"
FLAGS DCP
INDEX 01 08:43:30
TRACK 04 AUDIO
TITLE "Here Today, Gone Tomorrow"
PERFORMER "Keel"
FLAGS DCP
INDEX 01 12:32:45
TRACK 05 AUDIO
TITLE "Arm And A Leg"
PERFORMER "Keel"
FLAGS DCP
INDEX 01 16:38:65
TRACK 06 AUDIO
TITLE "Raised On Rock"
PERFORMER "Keel"
FLAGS DCP
INDEX 01 19:50:25
TRACK 07 AUDIO
TITLE "Just Another Girl"
PERFORMER "Keel"
FLAGS DCP
INDEX 01 23:03:00
TRACK 08 AUDIO
TITLE "Tears Of Fire"
PERFORMER "Keel"
FLAGS DCP
INDEX 01 26:18:30
TRACK 09 AUDIO
TITLE "Nightfall"
PERFORMER "Keel"
FLAGS DCP
INDEX 01 30:41:25
TRACK 10 AUDIO
TITLE "No Pain No Gain"
PERFORMER "Keel"
FLAGS DCP
INDEX 01 32:34:20



Keel - 1989 - Larger Than Live (reissued 1998)

Attachment:
full front.jpg
full front.jpg [ 1.99 MiB | Viewed 195 times ]

Attachment:
back.jpg
back.jpg [ 721.63 KiB | Viewed 204 times ]


Genre: Heavy Metal
Location: USA
Format: ape+cue+log+covers
Size: 380 Mb


Ifolder l MultiUp l Narod

log
Exact Audio Copy V0.99 prebeta 5 from 4. May 2009

Отчёт EAC об извлечении, выполненном 17. апреля 2010, 21:37

Keel / Larger Than Live

Дисковод: PLEXTOR DVDR PX-810SA Adapter: 2 ID: 0

Режим чтения : Достоверность
Использование точного потока : Да
Отключение кэша аудио : Да
Использование указателей C2 : Нет

Коррекция смещения при чтении : 48
Способность читать области Lead-in и Lead-out : Нет
Заполнение пропущенных сэмплов тишиной : Да
Удаление блоков с тишиной в начале и конце : Нет
При вычислениях CRC использовались нулевые сэмплы : Нет
Интерфейс : Встроенный Win32-интерфейс для Win NT/2000

Выходной формат : Monkey's Audio Lossless Encoder v3.99 DLL
Формат сэмплов : Fast Lossless Compression


TOC извлечённого CD

Трек | Старт | Длительность | Начальный сектор | Конечный сектор
---------------------------------------------------------------------
1 | 0:00.00 | 4:23.48 | 0 | 19772
2 | 4:23.48 | 3:25.14 | 19773 | 35161
3 | 7:48.62 | 4:43.72 | 35162 | 56458
4 | 12:32.59 | 4:16.55 | 56459 | 75713
5 | 16:49.39 | 4:08.52 | 75714 | 94365
6 | 20:58.16 | 4:18.34 | 94366 | 113749
7 | 25:16.50 | 4:07.63 | 113750 | 132337
8 | 29:24.38 | 6:16.30 | 132338 | 160567
9 | 35:40.68 | 4:37.53 | 160568 | 181395
10 | 40:18.46 | 4:13.10 | 181396 | 200380
11 | 44:31.56 | 6:05.58 | 200381 | 227813
12 | 50:37.39 | 5:20.50 | 227814 | 251863


Характеристики диапазона извлечения и сообщения об ошибках

Выбранный диапазон

Имя файла D:\Keel - Larger Than Live.ape

Пиковый уровень 100.0 %
Качество диапазона 99.9 %
CRC копии 4F6DFEEC
Копирование... OK

Ошибок не произошло

Конец отчёта


cue
REM GENRE "Hard Rock"
REM DATE 1989
REM DISCID 8B0D1E0C
REM COMMENT "ExactAudioCopy v0.99pb5"
PERFORMER "Keel"
TITLE "Larger Than Live"
FILE "Keel - Larger Than Live.ape" WAVE
TRACK 01 AUDIO
TITLE "Evil, Wicked, Mean & Nasty"
PERFORMER "Keel"
INDEX 01 00:00:00
TRACK 02 AUDIO
TITLE "Riding High"
PERFORMER "Keel"
INDEX 01 04:23:48
TRACK 03 AUDIO
TITLE "Die Fighting"
PERFORMER "Keel"
INDEX 01 07:48:62
TRACK 04 AUDIO
TITLE "Dreams Are Not Enough"
PERFORMER "Keel"
INDEX 01 12:32:59
TRACK 05 AUDIO
TITLE "So Many Good Ways To Be Bad"
PERFORMER "Keel"
INDEX 01 16:49:39
TRACK 06 AUDIO
TITLE "Fool For A Pretty Face"
PERFORMER "Keel"
INDEX 01 20:58:16
TRACK 07 AUDIO
TITLE "Hard As Hell"
PERFORMER "Keel"
INDEX 01 25:16:50
TRACK 08 AUDIO
TITLE "Rock And Roll Animal"
PERFORMER "Keel"
INDEX 01 29:24:38
TRACK 09 AUDIO
TITLE "Private Lies"
PERFORMER "Keel"
INDEX 01 35:40:68
TRACK 10 AUDIO
TITLE "Rock 'N Roll Outlaw"
PERFORMER "Keel"
INDEX 01 40:18:46
TRACK 11 AUDIO
TITLE "The Right To Rock"
PERFORMER "Keel"
INDEX 01 44:31:56
TRACK 12 AUDIO
TITLE "Cold Day In Hell"
PERFORMER "Keel"
INDEX 01 50:37:39




Авторов рипов увы указать не могу, ибо качал давно и хрен знает откуда, но рипы вроде в порядке...


Top
 Profile  
 
 
PostPosted: 18 Apr 2011 
хард н хэвщик (support team)
User avatar
Joined: 02 Jun 2008
Posts: 16881
Lоcаtion: Н.Новгород
Age: 32
Name: Артем
cammard wrote:
А откуда возможность посещения интернета в армии?
парни, честно, я порой сам офигеваю, когда начинаю задумываться, какая у меня служба :vic: интернет у меня с USB-модема, если што :pardon:


Top
 Profile  
 
 
PostPosted: 19 Apr 2011 
Труъ
Joined: 01 Jan 2010
Posts: 118
Lоcаtion: MetaLWarrioR
Name: Сергей
cammard
Спасибо тебе большое за альбомы!!!
Поставил в очередь закачек!!!
Просто шикарно!!!

McKagan
Неплохо устроился, а что за род войск, если не секрет?


Top
 Profile E-mail  
 
 
PostPosted: 19 Apr 2011 
Я набрал 1000 сообщений!
Joined: 12 Dec 2008
Posts: 1066
Lоcаtion: BULGARIA
Age: 41
Name: DIMITЪR
Thank you!!! :true:


Top
 Profile  
 
 
PostPosted: 19 Apr 2011 
хард н хэвщик (support team)
User avatar
Joined: 02 Jun 2008
Posts: 16881
Lоcаtion: Н.Новгород
Age: 32
Name: Артем
MetaLWarrioR wrote:
Неплохо устроился, а что за род войск, если не секрет?

4 танковая бригада в Наро-Фоминске :pardon:


Top
 Profile  
 
 
PostPosted: 20 Apr 2011 
Я набрал 1000 сообщений!
Joined: 12 Dec 2008
Posts: 1066
Lоcаtion: BULGARIA
Age: 41
Name: DIMITЪR
Почему первая песня назьвается Teh Final Frontier,а не The Final Frontier ,ето фирменая ошибка или статус APE сомнителен перекод.


Top
 Profile  
 
 
PostPosted: 20 Apr 2011 
Персональный статус
Joined: 02 Apr 2010
Posts: 223
Name: Андрей
cryptors wrote:
Почему первая песня назьвается Teh Final Frontier,а не The Final Frontier ,ето фирменая ошибка или статус APE сомнителен перекод.


При чём тут перекод???? У меня перекодов в коллекции НЕТ. Эта ошибка, а точнее опечатка присутствует в базе freedb, откуда программа EAC и берёт названия треков. Открой CUE блокнотом или wordpad и исправь, затем сохрани с расширением .cue , это разве сложно?

Image


Top
 Profile  
 
 
PostPosted: 21 Apr 2011 
Хиппей (support team)
User avatar
Joined: 30 Jul 2007
Posts: 114883
Lоcаtion: Киев (Kyiv, UA)
Age: 46
Name: Andrey
О, наконец-то :crazy:
Андрюха, спасибо - избавил от бессонницы :true:

_________________


Top
 Profile E-mail  
 
Display posts from previous:  Sort by  
Post new topic Reply to topic  [ 72 posts ]  Go to page Previous  1, 2, 3, 4

All times are UTC + 3 hours


Who is online

Users browsing this forum: No registered users and 1 guest


You cannot post new topics in this forum
You cannot reply to topics in this forum
You cannot edit your posts in this forum
You cannot delete your posts in this forum
You cannot post attachments in this forum

Search for:
Яндекс.Метрика
cron
Powered by phpBB © 2000, 2002, 2005, 2007 phpBB Group