\m/ 80's metal \m/

Информационно-аналитический форум "80 см пыли" (In Search We Trust) "У нас никто никуда не спешит"
Me For You - http://me-4u.com
It is currently 25 Mar 2019

All times are UTC + 3 hours

Spoiler
Chat - temporary registration for foreign users (please leave your application here)







Post new topic Reply to topic  [ 2 posts ] 
Author Message
 
PostPosted: 06 Nov 2017 
Работнечег
User avatar
Joined: 28 Aug 2007
Posts: 5765
Lоcаtion: г. Москва
Age: 30
Name: Дима
Image

Label: Brennus Records
Genre: Heavy/Speed Metal
Country: France
Format: Flac + Log + Cue + Covers
Size: 338 Mb

Tracklist:
1. Intro 01:15
2. L'Armée de la mort 04:55
3. Sous le regard des hommes 04:00
4. L'Aigle noir (Barbara cover) 05:40
5. Le Pouvoir sans la gloire 05:35
6. No Man's Land 04:35
7. Les Cités interdites 04:05
8. Questions de conscience 04:05
9. Travelling Flash 03:45
10. Au-delà de la fin 04:25

LOG
Exact Audio Copy V0.99 prebeta 5 from 4. May 2009

EAC extraction logfile from 25. October 2017, 21:10

Killers / Cites Interdites (Reissued In 1997)

Used drive : PIONEER DVD-RW DVR-221 Adapter: 2 ID: 1

Read mode : Secure
Utilize accurate stream : Yes
Defeat audio cache : Yes
Make use of C2 pointers : No

Read offset correction : 6
Overread into Lead-In and Lead-Out : No
Fill up missing offset samples with silence : Yes
Delete leading and trailing silent blocks : No
Null samples used in CRC calculations : Yes
Used interface : Native Win32 interface for Win NT & 2000

Used output format : User Defined Encoder
Selected bitrate : 32 kBit/s
Quality : High
Add ID3 tag : No
Command line compressor : C:\Program Files\Exact Audio Copy\Flac\flac.exe
Additional command line options : -6 -V %s


TOC of the extracted CD

Track | Start | Length | Start sector | End sector
---------------------------------------------------------
1 | 0:00.00 | 1:17.31 | 0 | 5805
2 | 1:17.31 | 4:50.20 | 5806 | 27575
3 | 6:07.51 | 4:00.29 | 27576 | 45604
4 | 10:08.05 | 5:39.15 | 45605 | 71044
5 | 15:47.20 | 5:42.08 | 71045 | 96702
6 | 21:29.28 | 4:35.06 | 96703 | 117333
7 | 26:04.34 | 4:07.11 | 117334 | 135869
8 | 30:11.45 | 4:08.19 | 135870 | 154488
9 | 34:19.64 | 3:43.70 | 154489 | 171283
10 | 38:03.59 | 4:23.08 | 171284 | 191016


Range status and errors

Selected range

Filename D:\Музыка\Lossless\Killers - Cited Interdites (1992)(Reissued In 1997)\Killers - Cites Interdites (Reissued In 1997).wav

Peak level 100.0 %
Range quality 100.0 %
Copy CRC 0B1430DE
Copy OK

No errors occurred


AccurateRip summary

Track 1 not present in database
Track 2 not present in database
Track 3 not present in database
Track 4 not present in database
Track 5 not present in database
Track 6 not present in database
Track 7 not present in database
Track 8 not present in database
Track 9 not present in database
Track 10 not present in database

None of the tracks are present in the AccurateRip database

End of status report

CUE
REM GENRE "Speed Metal"
REM DATE 1992
REM DISCID 8709F20A
REM COMMENT "ExactAudioCopy v0.99pb5"
PERFORMER "Killers"
TITLE "Cites Interdites (Reissued In 1997)"
FILE "Killers - Cites Interdites (Reissued In 1997).flac" WAVE
TRACK 01 AUDIO
TITLE "Intro"
PERFORMER "Killers"
FLAGS DCP
INDEX 01 00:00:00
TRACK 02 AUDIO
TITLE "L'armee De La Mort"
PERFORMER "Killers"
FLAGS DCP
INDEX 01 01:17:31
TRACK 03 AUDIO
TITLE "Sous Le Regard Des Hommes"
PERFORMER "Killers"
FLAGS DCP
INDEX 01 06:07:51
TRACK 04 AUDIO
TITLE "L'aigle Noir"
PERFORMER "Killers"
FLAGS DCP
INDEX 01 10:08:05
TRACK 05 AUDIO
TITLE "Le Pouvoir Sans La Gloire"
PERFORMER "Killers"
FLAGS DCP
INDEX 01 15:47:20
TRACK 06 AUDIO
TITLE "No Man's Land"
PERFORMER "Killers"
FLAGS DCP
INDEX 01 21:29:28
TRACK 07 AUDIO
TITLE "Les Cites Interdites"
PERFORMER "Killers"
FLAGS DCP
INDEX 01 26:04:34
TRACK 08 AUDIO
TITLE "Questions De Conscience"
PERFORMER "Killers"
FLAGS DCP
INDEX 01 30:11:45
TRACK 09 AUDIO
TITLE "Travelling Flash"
PERFORMER "Killers"
FLAGS DCP
INDEX 01 34:19:64
TRACK 10 AUDIO
TITLE "Au-Dela De La Fin"
PERFORMER "Killers"
FLAGS DCP
INDEX 01 38:03:59


Yadi

Неплохой, но довольно легкий альбом без особых хитов. Есть у них и лучше альбомы.


Top
 Profile E-mail  
 
 
PostPosted: 08 Nov 2017 
Хиппей (support team)
User avatar
Joined: 30 Jul 2007
Posts: 111143
Lоcаtion: Киев (Kyiv, UA)
Age: 45
Name: Andrey
:thanx:

_________________


Top
 Profile E-mail  
 
Display posts from previous:  Sort by  
Post new topic Reply to topic  [ 2 posts ] 

All times are UTC + 3 hours


Who is online

Users browsing this forum: No registered users and 1 guest


You cannot post new topics in this forum
You cannot reply to topics in this forum
You cannot edit your posts in this forum
You cannot delete your posts in this forum
You cannot post attachments in this forum

Search for:
Яндекс.Метрика
Powered by phpBB © 2000, 2002, 2005, 2007 phpBB Group