\m/ 80's metal \m/

Информационно-аналитический форум "80 см пыли" (In Search We Trust) "У нас никто никуда не спешит"
Me For You - http://me-4u.com
It is currently 26 Mar 2019

All times are UTC + 3 hours

Spoiler
Chat - temporary registration for foreign users (please leave your application here)







Post new topic Reply to topic  [ 8 posts ] 
Author Message
 
PostPosted: 04 Aug 2014 
Генеральный thrasher
User avatar
Joined: 03 Oct 2008
Posts: 3674
Lоcаtion: Ханты-Мансийский АО
Age: 44
Name: Сергей
Image

Year:2010
Style:Thrash Metal
Country:Spain
Audio:Flac+Cue+Log
Size:401Mb
Source:my CD
Label:Noisehead Records

Line-Up:
Gonzalo Gassol - bass
Ramon Nissen - drums
Javier Escaño - guitars
Álex L. Demise - vocals
David Marín - guitars

Tracklist:
01. Spiral 06:47
02. Dawn 06:14
03. Ephemeral 05:51
04. Façade 06:54
05. The abyss 05:21
06. Taker 05:24
07. Breakdown 03:49
08. Crossroads 07:05
09. The Cage 07:31

"Cue"
REM GENRE "Thrash Metal"
REM DATE 2010
REM DISCID 7A0CF309
REM COMMENT "ExactAudioCopy v0.99pb5"
PERFORMER "Killem"
TITLE "Reflections of Decline"
FILE "Killem - Reflections of Decline.flac" WAVE
TRACK 01 AUDIO
TITLE "Spiral"
PERFORMER "Killem"
INDEX 01 00:00:00
TRACK 02 AUDIO
TITLE "Dawn"
PERFORMER "Killem"
INDEX 00 06:47:40
INDEX 01 06:49:40
TRACK 03 AUDIO
TITLE "Ephemeral"
PERFORMER "Killem"
INDEX 00 13:03:74
INDEX 01 13:05:74
TRACK 04 AUDIO
TITLE "Façade"
PERFORMER "Killem"
INDEX 00 18:57:08
INDEX 01 18:59:08
TRACK 05 AUDIO
TITLE "The Abyss"
PERFORMER "Killem"
INDEX 00 25:53:49
INDEX 01 25:55:49
TRACK 06 AUDIO
TITLE "Taker"
PERFORMER "Killem"
INDEX 00 31:16:72
INDEX 01 31:18:72
TRACK 07 AUDIO
TITLE "Breakdown"
PERFORMER "Killem"
INDEX 00 36:43:46
INDEX 01 36:45:46
TRACK 08 AUDIO
TITLE "Crossroads"
PERFORMER "Killem"
INDEX 00 40:34:50
INDEX 01 40:36:50
TRACK 09 AUDIO
TITLE "The Cage"
PERFORMER "Killem"
INDEX 00 47:42:20
INDEX 01 47:44:20

"Log"
Exact Audio Copy V0.99 prebeta 5 from 4. May 2009

Отчёт EAC об извлечении, выполненном 16. марта 2014, 10:17

Killem / Reflections of Decline

Дисковод: MATSHITADVD-RAM UJ8A0AS Adapter: 0 ID: 1

Режим чтения : Достоверность
Использование точного потока : Да
Отключение кэша аудио : Да
Использование указателей C2 : Нет

Коррекция смещения при чтении : 102
Способность читать области Lead-in и Lead-out : Нет
Заполнение пропущенных сэмплов тишиной : Да
Удаление блоков с тишиной в начале и конце : Нет
При вычислениях CRC использовались нулевые сэмплы : Да
Интерфейс : Встроенный Win32-интерфейс для Win NT/2000

Выходной формат : Пользовательский кодировщик
Выбранный битрейт : 1024 kBit/s
Качество : Высокий
Добавление ID3-тэга : Нет
Утилита сжатия : C:\Program Files\Exact Audio Copy\FLAC\FLAC.EXE
Дополнительные параметры : -6 -V -T "ARTIST=%a" -T "TITLE=%t" -T "ALBUM=%g" -T "DATE=%y" -T "TRACKNUMBER=%n" -T "GENRE=%m" -T "COMMENT=%e" %s -o %d


TOC извлечённого CD

Трек | Старт | Длительность | Начальный сектор | Конечный сектор
---------------------------------------------------------------------
1 | 0:00.00 | 6:49.40 | 0 | 30714
2 | 6:49.40 | 6:16.34 | 30715 | 58948
3 | 13:05.74 | 5:53.09 | 58949 | 85432
4 | 18:59.08 | 6:56.41 | 85433 | 116673
5 | 25:55.49 | 5:23.23 | 116674 | 140921
6 | 31:18.72 | 5:26.49 | 140922 | 165420
7 | 36:45.46 | 3:51.04 | 165421 | 182749
8 | 40:36.50 | 7:07.45 | 182750 | 214819
9 | 47:44.20 | 7:31.14 | 214820 | 248658


Характеристики диапазона извлечения и сообщения об ошибках

Выбранный диапазон

Имя файла C:\Users\эксперт\Music\Killem - Reflections of Decline.wav

Пиковый уровень 99.1 %
Качество диапазона 100.0 %
CRC копии 0A534FC5
Копирование... OK

Ошибок не произошло


AccurateRip: сводка

Трек 1 нет в базе данных
Трек 2 нет в базе данных
Трек 3 нет в базе данных
Трек 4 нет в базе данных
Трек 5 нет в базе данных
Трек 6 нет в базе данных
Трек 7 нет в базе данных
Трек 8 нет в базе данных
Трек 9 нет в базе данных

Ни одного трека нет в базе AccurateRip

Конец отчёта


Reflections Of Decline


Top
 Profile  
 
 
PostPosted: 04 Aug 2014 
А может смените мне статус?..
User avatar
Joined: 28 Jul 2008
Posts: 918
Lоcаtion: Украина---Днепропетровск
Age: 44
Name: Александр
:thanx:

_________________
Музыка в которой я растворяюсь многих угнетает......


Top
 Profile  
 
 
PostPosted: 04 Aug 2014 
Работнечег
User avatar
Joined: 28 Aug 2007
Posts: 5765
Lоcаtion: г. Москва
Age: 30
Name: Дима
:true:


Top
 Profile E-mail  
 
 
PostPosted: 04 Aug 2014 
Прокъмитолист
User avatar
Joined: 12 Aug 2007
Posts: 6537
Lоcаtion: Санктъ-Петербуркъ
Age: 51
Name: Олекъ
Серёга, спасибо! :thanx:

з.ы. а к этому альбому сканов не делал?

_________________
прокъметол - это музыко, от которово есть прок (ы)


Top
 Profile  
 
 
PostPosted: 05 Aug 2014 
Генеральный thrasher
User avatar
Joined: 03 Oct 2008
Posts: 3674
Lоcаtion: Ханты-Мансийский АО
Age: 44
Name: Сергей
Олег,это у меня промо диск.Поэтому буклета сделать не могу.Просто диск в коробочке.


Top
 Profile  
 
 
PostPosted: 05 Aug 2014 
Прокъмитолист
User avatar
Joined: 12 Aug 2007
Posts: 6537
Lоcаtion: Санктъ-Петербуркъ
Age: 51
Name: Олекъ
понял, Серёг. ничего страшного, спасибо еще раз :drink:

_________________
прокъметол - это музыко, от которово есть прок (ы)


Top
 Profile  
 
 
PostPosted: 07 Aug 2014 
А может смените мне статус?..
User avatar
Joined: 02 Feb 2009
Posts: 999
Lоcаtion: из Тулы
Age: 44
Name: Максим
это то что я тебе присылал, Серег?

_________________
КМА


Top
 Profile  
 
 
PostPosted: 08 Aug 2014 
Генеральный thrasher
User avatar
Joined: 03 Oct 2008
Posts: 3674
Lоcаtion: Ханты-Мансийский АО
Age: 44
Name: Сергей
это то что я тебе присылал, Серег?


Ага...


Top
 Profile  
 
Display posts from previous:  Sort by  
Post new topic Reply to topic  [ 8 posts ] 

All times are UTC + 3 hours


Who is online

Users browsing this forum: No registered users and 2 guests


You cannot post new topics in this forum
You cannot reply to topics in this forum
You cannot edit your posts in this forum
You cannot delete your posts in this forum
You cannot post attachments in this forum

Search for:
Яндекс.Метрика
Powered by phpBB © 2000, 2002, 2005, 2007 phpBB Group