\m/ 80's metal \m/

Информационно-аналитический форум "80 см пыли" (In Search We Trust) "У нас никто никуда не спешит"
Me For You - http://me-4u.com
It is currently 19 Oct 2019

All times are UTC + 3 hours

Spoiler
Chat - temporary registration for foreign users (please leave your application here)







Post new topic Reply to topic  [ 4 posts ] 
Author Message
 
PostPosted: 04 Aug 2014 
Генеральный thrasher
User avatar
Joined: 03 Oct 2008
Posts: 3741
Lоcаtion: Ханты-Мансийский АО
Age: 44
Name: Сергей
Image

Year:2006
Style:Thrash Metal
Country:Spain
Audio:Flac+Cue+Log+Scans
Size:516Mb
Source:my CD
Label:Dark Rails Records

Line-Up:
Álex L. Demise - vocals
Javier Escaño - guitars (lead)
Victor Silvestre - guitars (rhythm)
Gonzalo Gassol - bass
Ramon Nissen - drums

Tracklist:
01. Cancer 05:39
02. Revenge 03:22
03. Behind The Lie Of Perception 04:34
04. Void 05:34
05. Nowhere 05:01
06. Green Messiah 04:23
07. Biolypse 05:23
08. Shut In Myself 07:54
09. Neverending Pain 05:19
10. Full Force 05:50
11. Hate 02:22
12. Faithless Priest 07:19

"Cue"
REM GENRE "Thrash Metal"
REM DATE 2006
REM DISCID A00EAE0D
REM COMMENT "ExactAudioCopy v0.99pb5"
PERFORMER "Killem"
TITLE "Muted"
FILE "Killem - Muted.flac" WAVE
TRACK 01 AUDIO
TITLE "Cancer"
PERFORMER "Killem"
INDEX 01 00:00:00
TRACK 02 AUDIO
TITLE "Revenge"
PERFORMER "Killem"
INDEX 01 05:39:19
TRACK 03 AUDIO
TITLE "Behind The Lie Of Perception"
PERFORMER "Killem"
INDEX 01 09:02:00
TRACK 04 AUDIO
TITLE "Void"
PERFORMER "Killem"
INDEX 01 13:36:24
TRACK 05 AUDIO
TITLE "Nowhere"
PERFORMER "Killem"
INDEX 01 19:00:55
TRACK 06 AUDIO
TITLE "Green Messiah"
PERFORMER "Killem"
INDEX 01 24:02:24
TRACK 07 AUDIO
TITLE "Biolypse"
PERFORMER "Killem"
INDEX 01 28:25:57
TRACK 08 AUDIO
TITLE "Shut In Myself"
PERFORMER "Killem"
INDEX 01 33:49:46
TRACK 09 AUDIO
TITLE "Neverending Pain"
PERFORMER "Killem"
INDEX 01 41:43:63
TRACK 10 AUDIO
TITLE "Full Force"
PERFORMER "Killem"
INDEX 01 47:02:74
TRACK 11 AUDIO
TITLE "Hate"
PERFORMER "Killem"
INDEX 01 52:52:74
TRACK 12 AUDIO
TITLE "Faithless Priest"
PERFORMER "Killem"
INDEX 01 55:15:04
TRACK 13 AUDIO
TITLE "Track13"
PERFORMER "Killem"
INDEX 01 62:34:74

"Log"
Exact Audio Copy V0.99 prebeta 5 from 4. May 2009

Отчёт EAC об извлечении, выполненном 14. марта 2014, 20:09

Killem / Muted

Дисковод: MATSHITADVD-RAM UJ8A0AS Adapter: 0 ID: 1

Режим чтения : Достоверность
Использование точного потока : Да
Отключение кэша аудио : Да
Использование указателей C2 : Нет

Коррекция смещения при чтении : 102
Способность читать области Lead-in и Lead-out : Нет
Заполнение пропущенных сэмплов тишиной : Да
Удаление блоков с тишиной в начале и конце : Нет
При вычислениях CRC использовались нулевые сэмплы : Да
Интерфейс : Встроенный Win32-интерфейс для Win NT/2000

Выходной формат : Пользовательский кодировщик
Выбранный битрейт : 1024 kBit/s
Качество : Высокий
Добавление ID3-тэга : Нет
Утилита сжатия : C:\Program Files\Exact Audio Copy\FLAC\FLAC.EXE
Дополнительные параметры : -6 -V -T "ARTIST=%a" -T "TITLE=%t" -T "ALBUM=%g" -T "DATE=%y" -T "TRACKNUMBER=%n" -T "GENRE=%m" -T "COMMENT=%e" %s -o %d


TOC извлечённого CD

Трек | Старт | Длительность | Начальный сектор | Конечный сектор
---------------------------------------------------------------------
1 | 0:00.00 | 5:39.19 | 0 | 25443
2 | 5:39.19 | 3:22.56 | 25444 | 40649
3 | 9:02.00 | 4:34.24 | 40650 | 61223
4 | 13:36.24 | 5:24.31 | 61224 | 85554
5 | 19:00.55 | 5:01.44 | 85555 | 108173
6 | 24:02.24 | 4:23.33 | 108174 | 127931
7 | 28:25.57 | 5:23.64 | 127932 | 152220
8 | 33:49.46 | 7:54.17 | 152221 | 187787
9 | 41:43.63 | 5:19.11 | 187788 | 211723
10 | 47:02.74 | 5:50.00 | 211724 | 237973
11 | 52:52.74 | 2:22.05 | 237974 | 248628
12 | 55:15.04 | 7:19.70 | 248629 | 281623
13 | 62:34.74 | 0:04.00 | 281624 | 281923


Характеристики диапазона извлечения и сообщения об ошибках

Выбранный диапазон

Имя файла C:\Users\эксперт\Music\Killem - Muted.wav

Пиковый уровень 100.0 %
Качество диапазона 99.9 %
CRC копии E08F85CD
Копирование... OK

Ошибок не произошло


AccurateRip: сводка

Трек 1 нет в базе данных
Трек 2 нет в базе данных
Трек 3 нет в базе данных
Трек 4 нет в базе данных
Трек 5 нет в базе данных
Трек 6 нет в базе данных
Трек 7 нет в базе данных
Трек 8 нет в базе данных
Трек 9 нет в базе данных
Трек 10 нет в базе данных
Трек 11 нет в базе данных
Трек 12 нет в базе данных
Трек 13 нет в базе данных

Ни одного трека нет в базе AccurateRip

Конец отчёта


Muted


Top
 Profile  
 
 
PostPosted: 04 Aug 2014 
А может смените мне статус?..
User avatar
Joined: 28 Jul 2008
Posts: 991
Lоcаtion: Украина---Днепропетровск
Age: 45
Name: Александр
:thanx:

_________________
Музыка в которой я растворяюсь многих угнетает......


Top
 Profile  
 
 
PostPosted: 04 Aug 2014 
Работнечег
User avatar
Joined: 28 Aug 2007
Posts: 6035
Lоcаtion: г. Москва
Age: 30
Name: Дима
Спасибо, Серег! :true:


Top
 Profile E-mail  
 
 
PostPosted: 04 Aug 2014 
Прокъмитолист
User avatar
Joined: 12 Aug 2007
Posts: 6625
Lоcаtion: Санктъ-Петербуркъ
Age: 52
Name: Олекъ
и здесь спасибо! :drink:

_________________
прокъметол - это музыко, от которово есть прок (ы)


Top
 Profile  
 
Display posts from previous:  Sort by  
Post new topic Reply to topic  [ 4 posts ] 

All times are UTC + 3 hours


Who is online

Users browsing this forum: No registered users and 1 guest


You cannot post new topics in this forum
You cannot reply to topics in this forum
You cannot edit your posts in this forum
You cannot delete your posts in this forum
You cannot post attachments in this forum

Search for:
Яндекс.Метрика
Powered by phpBB © 2000, 2002, 2005, 2007 phpBB Group