\m/ 80's metal \m/

Информационно-аналитический форум "80 см пыли" (In Search We Trust) "У нас никто никуда не спешит"
Me For You - http://me-4u.com
It is currently 10 Dec 2019

All times are UTC + 3 hours

Spoiler
Chat - temporary registration for foreign users (please leave your application here)







Post new topic Reply to topic  [ 13 posts ] 
Author Message
 
PostPosted: 02 Oct 2013 
Генеральный thrasher
User avatar
Joined: 03 Oct 2008
Posts: 3743
Lоcаtion: Ханты-Мансийский АО
Age: 44
Name: Сергей
Image


Year:1986 (2003 Re-Issue)
Style:Thrash Metal
Country:Poland
Audio:Flac+Cue+Log+Scans
Size:309Mb
Source:myCD
Label:Mystic Production

Line-Up:
Roman Kostrzewski - vocals
Tomasz Jaguś - bass
Piotr Luczyk - guitars
Wojciech Mrowiec - guitars
Ireneusz Loth - drums

Tracklist:
01. Metal i Piekło 02:45
02. Diabelski Dom cz. I 04:47
03. Morderca 03:156
04. Masz Mnie Wampirze 03:112
05. Czas Zemsty 04:478
06. Noce Szatana 03:323
07. Diabelski Dom cz. III 03:42
08. Wyrocznia 03:412
09. 666 03:31
10. Czarne Zastępy 03:28

"Cue"
REM GENRE "Thrash Metal"
REM DATE 1986
REM DISCID 7A08B00A
REM COMMENT "ExactAudioCopy v0.99pb5"
PERFORMER "Kat"
TITLE "666"
FILE "Kat - 666.flac" WAVE
TRACK 01 AUDIO
TITLE "Metal i piekіo"
PERFORMER "Kat"
INDEX 01 00:00:00
TRACK 02 AUDIO
TITLE "Diabelski dom cz. I"
PERFORMER "Kat"
INDEX 00 02:45:35
INDEX 01 02:47:07
TRACK 03 AUDIO
TITLE "Morderca"
PERFORMER "Kat"
INDEX 00 07:34:17
INDEX 01 07:35:62
TRACK 04 AUDIO
TITLE "Masz mnie wampirze"
PERFORMER "Kat"
INDEX 00 10:52:45
INDEX 01 10:54:17
TRACK 05 AUDIO
TITLE "Czas zemsty"
PERFORMER "Kat"
INDEX 00 14:06:60
INDEX 01 14:08:32
TRACK 06 AUDIO
TITLE "Noce szatana"
PERFORMER "Kat"
INDEX 00 18:57:27
INDEX 01 18:58:72
TRACK 07 AUDIO
TITLE "Diableski dom cz. III"
PERFORMER "Kat"
INDEX 00 22:32:15
INDEX 01 22:33:65
TRACK 08 AUDIO
TITLE "Wyrocznia"
PERFORMER "Kat"
INDEX 00 26:16:52
INDEX 01 26:18:27
TRACK 09 AUDIO
TITLE "666"
PERFORMER "Kat"
INDEX 00 30:00:60
INDEX 01 30:02:40
TRACK 10 AUDIO
TITLE "Czarne zastкpy"
PERFORMER "Kat"
INDEX 00 33:34:00
INDEX 01 33:36:22

"Log"
Exact Audio Copy V0.99 prebeta 5 from 4. May 2009

Отчёт EAC об извлечении, выполненном 19. сентября 2013, 11:28

Kat / 666

Дисковод: MATSHITADVD-RAM UJ8A0AS Adapter: 0 ID: 1

Режим чтения : Достоверность
Использование точного потока : Да
Отключение кэша аудио : Да
Использование указателей C2 : Нет

Коррекция смещения при чтении : 102
Способность читать области Lead-in и Lead-out : Нет
Заполнение пропущенных сэмплов тишиной : Да
Удаление блоков с тишиной в начале и конце : Нет
При вычислениях CRC использовались нулевые сэмплы : Да
Интерфейс : Встроенный Win32-интерфейс для Win NT/2000

Выходной формат : Пользовательский кодировщик
Выбранный битрейт : 1024 kBit/s
Качество : Высокий
Добавление ID3-тэга : Нет
Утилита сжатия : C:\Program Files\Exact Audio Copy\FLAC\FLAC.EXE
Дополнительные параметры : -6 -V -T "ARTIST=%a" -T "TITLE=%t" -T "ALBUM=%g" -T "DATE=%y" -T "TRACKNUMBER=%n" -T "GENRE=%m" -T "COMMENT=%e" %s -o %d


TOC извлечённого CD

Трек | Старт | Длительность | Начальный сектор | Конечный сектор
---------------------------------------------------------------------
1 | 0:00.00 | 2:47.07 | 0 | 12531
2 | 2:47.07 | 4:48.55 | 12532 | 34186
3 | 7:35.62 | 3:18.30 | 34187 | 49066
4 | 10:54.17 | 3:14.15 | 49067 | 63631
5 | 14:08.32 | 4:50.40 | 63632 | 85421
6 | 18:58.72 | 3:34.68 | 85422 | 101539
7 | 22:33.65 | 3:44.37 | 101540 | 118376
8 | 26:18.27 | 3:44.13 | 118377 | 135189
9 | 30:02.40 | 3:33.57 | 135190 | 151221
10 | 33:36.22 | 3:28.25 | 151222 | 166846


Характеристики диапазона извлечения и сообщения об ошибках

Выбранный диапазон

Имя файла C:\Users\эксперт\Music\Kat - 666.wav

Пиковый уровень 97.6 %
Качество диапазона 100.0 %
CRC копии 96DBEBBC
Копирование... OK

Ошибок не произошло


AccurateRip: сводка

Трек 1 точное извлечение (доверие 2) [7CDBD5B5]
Трек 2 точное извлечение (доверие 2) [0181853F]
Трек 3 точное извлечение (доверие 2) [986C2139]
Трек 4 точное извлечение (доверие 2) [D75AAEFB]
Трек 5 точное извлечение (доверие 2) [17E5ED36]
Трек 6 точное извлечение (доверие 2) [8A407AF8]
Трек 7 точное извлечение (доверие 2) [DB9044EC]
Трек 8 точное извлечение (доверие 2) [3C40A413]
Трек 9 точное извлечение (доверие 2) [80219DFC]
Трек 10 точное извлечение (доверие 2) [6C7861F3]

Все треки извлечены точно

Конец отчёта


666


Top
 Profile  
 
 
PostPosted: 02 Oct 2013 
Хиппей (support team)
User avatar
Joined: 30 Jul 2007
Posts: 116047
Lоcаtion: Киев (Kyiv, UA)
Age: 46
Name: Andrey
Серёг, спасибо :true: :thanx:

Дебютник на английском порвал в ошмётки (по нему позже пару слов скажу - как ни смешно, его то я и не слышал ранее), а этот я уже точно не раз слушал - классика :kz:

Надеюсь, хоть здесь звук не смогли испортить "ремастером" :fingal:

_________________


Top
 Profile E-mail  
 
 
PostPosted: 02 Oct 2013 
Генеральный thrasher
User avatar
Joined: 03 Oct 2008
Posts: 3743
Lоcаtion: Ханты-Мансийский АО
Age: 44
Name: Сергей
Да нет,Андрюх...Вроде как не ремастер.


Top
 Profile  
 
 
PostPosted: 02 Oct 2013 
Хиппей (support team)
User avatar
Joined: 30 Jul 2007
Posts: 116047
Lоcаtion: Киев (Kyiv, UA)
Age: 46
Name: Andrey
Тьху, Народ снова с утра тупит :vic:

_________________


Top
 Profile E-mail  
 
 
PostPosted: 02 Oct 2013 
Хиппей (support team)
User avatar
Joined: 30 Jul 2007
Posts: 116047
Lоcаtion: Киев (Kyiv, UA)
Age: 46
Name: Andrey
Да нет,Андрюх...Вроде как не ремастер.

Ну 85-й был снял с ленты и подчищен до жути. Не хочу кого-то растраивать, но так похабно снять копию с кассеты нужно было ой как умудриться :cry:

_________________


Top
 Profile E-mail  
 
 
PostPosted: 02 Oct 2013 
\m/ 80 см сала \m/
User avatar
Joined: 12 Mar 2012
Posts: 2590
Age: 26
Name: Nick
О, самое "оно" на вечер будет. Спасибо :thanx:

_________________
1990 AUROPHON BRAINSTORM (Germany) - lossless
1994 MAUSOLEUM CLASSIX (Belgium-Germany) - lossless
1998 VA - GRIM HARVEST - Complete Metal Massacre Volumes I-XII


Top
 Profile  
 
 
PostPosted: 02 Oct 2013 
Хиппей (support team)
User avatar
Joined: 30 Jul 2007
Posts: 116047
Lоcаtion: Киев (Kyiv, UA)
Age: 46
Name: Andrey
mirror: Narod

_________________


Top
 Profile E-mail  
 
 
PostPosted: 03 Oct 2013 
ТрэшЭрос
User avatar
Joined: 18 Jul 2011
Posts: 2307
Lоcаtion: Гулькевичи
Age: 44
Name: Александр
thorbeorn, :thanx: :true:

_________________
Thrash no trash!!!


Top
 Profile E-mail  
 
 
PostPosted: 17 Mar 2019 
Я набрал 1000 сообщений!
Joined: 09 Jul 2008
Posts: 3144
Age: 46
Name: Сергей
KAT & Roman Kostrzewski - Popiór (2019) (Poland - Thrash Metal)
ничего, правда, интересного


Top
 Profile  
 
 
PostPosted: 18 Mar 2019 
Хиппей (support team)
User avatar
Joined: 30 Jul 2007
Posts: 116047
Lоcаtion: Киев (Kyiv, UA)
Age: 46
Name: Andrey
Тему в "Трэш"?

_________________


Top
 Profile E-mail  
 
 
PostPosted: 18 Mar 2019 
консэрваторъ
User avatar
Joined: 11 Aug 2007
Posts: 17500
Lоcаtion: Псков
Age: 45
Name: Сергей
boojum wrote:
KAT & Roman Kostrzewski - Popiór (2019)

Ролик уже удалён с туба... :oops:

_________________
THRASH 'EM ALL


Top
 Profile E-mail  
 
 
PostPosted: 18 Mar 2019 
консэрваторъ
User avatar
Joined: 11 Aug 2007
Posts: 17500
Lоcаtion: Псков
Age: 45
Name: Сергей
Scatterbrain wrote:
Тему в "Трэш"?

Пока не... :oops: Блэкари какие-то... :vic:

KAT & Roman Kostrzewski - Ośle (Audio) | +

_________________
THRASH 'EM ALL


Top
 Profile E-mail  
 
 
PostPosted: 19 Mar 2019 
Хиппей (support team)
User avatar
Joined: 30 Jul 2007
Posts: 116047
Lоcаtion: Киев (Kyiv, UA)
Age: 46
Name: Andrey
splatty wrote:
Блэкари какие-то...

:shok: :shok: :shok:
Ты что у них слушал хоть?

_________________


Top
 Profile E-mail  
 
Display posts from previous:  Sort by  
Post new topic Reply to topic  [ 13 posts ] 

All times are UTC + 3 hours


Who is online

Users browsing this forum: No registered users and 2 guests


You cannot post new topics in this forum
You cannot reply to topics in this forum
You cannot edit your posts in this forum
You cannot delete your posts in this forum
You cannot post attachments in this forum

Search for:
Яндекс.Метрика
Powered by phpBB © 2000, 2002, 2005, 2007 phpBB Group