\m/ 80's metal \m/

Информационно-аналитический форум "80 см пыли" (In Search We Trust) "У нас никто никуда не спешит"
Me For You - http://me-4u.com
It is currently 13 Dec 2019

All times are UTC + 3 hours

Spoiler
Chat - temporary registration for foreign users (please leave your application here)







Post new topic Reply to topic  [ 4 posts ] 
Author Message
 
PostPosted: 28 Sep 2013 
Генеральный thrasher
User avatar
Joined: 03 Oct 2008
Posts: 3743
Lоcаtion: Ханты-Мансийский АО
Age: 44
Name: Сергей
Image

Year:1985 (2003 Re-Issue)
Style:Thrash Metal
Country:Poland
Audio:Flac+Cue+Log+Scans
Size:263Mb
Source:myCD
Label:Mystic Production

Line-Up:
Roman Kostrzewski - vocals
Krzysztof Oset - bass
Piotr Luczyk - guitars
Jacek Regulski - guitars
Ireneusz Loth - drums

Tracklist:
01. Metal And Hell 02:43
02. Killer 03:14
03. Time Of Revenge 04:47
04. Devil's House Part I 04:43
05. (You Go Me) Vampire 03:10
05. Devils Child 03:30
06. Black Hosts 03:24
07. Oracle 03:38
08. Devil's House Part III 03:38
09. 666 03:25

"Cue"
REM GENRE "Thrash Metal"
REM DATE 1985
REM DISCID 8D08A30A
REM COMMENT "ExactAudioCopy v0.99pb5"
PERFORMER "Kat"
TITLE "Metal And Hell"
FILE "Kat - Metal And Hell.flac" WAVE
TRACK 01 AUDIO
TITLE "Metal And Hell"
PERFORMER "Kat"
INDEX 01 00:00:00
TRACK 02 AUDIO
TITLE "Killer"
PERFORMER "Kat"
INDEX 00 02:43:39
INDEX 01 02:47:39
TRACK 03 AUDIO
TITLE "Time Of Revenge"
PERFORMER "Kat"
INDEX 00 06:02:00
INDEX 01 06:06:00
TRACK 04 AUDIO
TITLE "Devil's House I"
PERFORMER "Kat"
INDEX 00 10:53:08
INDEX 01 10:57:08
TRACK 05 AUDIO
TITLE "(You Got Me) Vampire"
PERFORMER "Kat"
INDEX 00 15:40:38
INDEX 01 15:44:38
TRACK 06 AUDIO
TITLE "Devils' Child"
PERFORMER "Kat"
INDEX 00 18:54:59
INDEX 01 18:58:59
TRACK 07 AUDIO
TITLE "Black Hosts"
PERFORMER "Kat"
INDEX 00 22:29:17
INDEX 01 22:33:17
TRACK 08 AUDIO
TITLE "Oracle"
PERFORMER "Kat"
INDEX 00 25:57:28
INDEX 01 26:01:28
TRACK 09 AUDIO
TITLE "Devil's House Part III"
PERFORMER "Kat"
INDEX 00 29:40:03
INDEX 01 29:44:03
TRACK 10 AUDIO
TITLE "666"
PERFORMER "Kat"
INDEX 00 33:22:23
INDEX 01 33:26:23

"Log"
Exact Audio Copy V0.99 prebeta 5 from 4. May 2009

Отчёт EAC об извлечении, выполненном 19. сентября 2013, 12:12

Kat / Metal And Hell

Дисковод: MATSHITADVD-RAM UJ8A0AS Adapter: 0 ID: 1

Режим чтения : Достоверность
Использование точного потока : Да
Отключение кэша аудио : Да
Использование указателей C2 : Нет

Коррекция смещения при чтении : 102
Способность читать области Lead-in и Lead-out : Нет
Заполнение пропущенных сэмплов тишиной : Да
Удаление блоков с тишиной в начале и конце : Нет
При вычислениях CRC использовались нулевые сэмплы : Да
Интерфейс : Встроенный Win32-интерфейс для Win NT/2000

Выходной формат : Пользовательский кодировщик
Выбранный битрейт : 1024 kBit/s
Качество : Высокий
Добавление ID3-тэга : Нет
Утилита сжатия : C:\Program Files\Exact Audio Copy\FLAC\FLAC.EXE
Дополнительные параметры : -6 -V -T "ARTIST=%a" -T "TITLE=%t" -T "ALBUM=%g" -T "DATE=%y" -T "TRACKNUMBER=%n" -T "GENRE=%m" -T "COMMENT=%e" %s -o %d


TOC извлечённого CD

Трек | Старт | Длительность | Начальный сектор | Конечный сектор
---------------------------------------------------------------------
1 | 0:00.00 | 2:47.39 | 0 | 12563
2 | 2:47.39 | 3:18.36 | 12564 | 27449
3 | 6:06.00 | 4:51.08 | 27450 | 49282
4 | 10:57.08 | 4:47.30 | 49283 | 70837
5 | 15:44.38 | 3:14.21 | 70838 | 85408
6 | 18:58.59 | 3:34.33 | 85409 | 101491
7 | 22:33.17 | 3:28.11 | 101492 | 117102
8 | 26:01.28 | 3:42.50 | 117103 | 133802
9 | 29:44.03 | 3:42.20 | 133803 | 150472
10 | 33:26.23 | 3:25.26 | 150473 | 165873


Характеристики диапазона извлечения и сообщения об ошибках

Выбранный диапазон

Имя файла C:\Users\эксперт\Music\Kat - Metal And Hell.wav

Пиковый уровень 96.6 %
Качество диапазона 100.0 %
CRC копии C0A78168
Копирование... OK

Ошибок не произошло


AccurateRip: сводка

Трек 1 нет в базе данных
Трек 2 нет в базе данных
Трек 3 нет в базе данных
Трек 4 нет в базе данных
Трек 5 нет в базе данных
Трек 6 нет в базе данных
Трек 7 нет в базе данных
Трек 8 нет в базе данных
Трек 9 нет в базе данных
Трек 10 нет в базе данных

Ни одного трека нет в базе AccurateRip

Конец отчёта


Metal And Hell

Может нужон кому-нибудь....


Top
 Profile  
 
 
PostPosted: 29 Sep 2013 
Работнечег
User avatar
Joined: 28 Aug 2007
Posts: 6086
Lоcаtion: г. Москва
Age: 30
Name: Дима
Спасибо, Серег! Забрал :thanx:


Top
 Profile E-mail  
 
 
PostPosted: 30 Sep 2013 
Хиппей (support team)
User avatar
Joined: 30 Jul 2007
Posts: 116105
Lоcаtion: Киев (Kyiv, UA)
Age: 46
Name: Andrey
:thanx:

mirror: Narod

Image

_________________


Top
 Profile E-mail  
 
 
PostPosted: 17 Oct 2013 
Хиппей (support team)
User avatar
Joined: 30 Jul 2007
Posts: 116105
Lоcаtion: Киев (Kyiv, UA)
Age: 46
Name: Andrey
Эх, жаль запись с ленты малость помятая... На третьем трэке в концовочке очь хорошо слышно :fingal:
А так для 85 года ну очень грозный и мрачноватый альбом. Да еще и на английском :meloman:

6+/10

_________________


Top
 Profile E-mail  
 
Display posts from previous:  Sort by  
Post new topic Reply to topic  [ 4 posts ] 

All times are UTC + 3 hours


Who is online

Users browsing this forum: No registered users and 1 guest


You cannot post new topics in this forum
You cannot reply to topics in this forum
You cannot edit your posts in this forum
You cannot delete your posts in this forum
You cannot post attachments in this forum

Search for:
Яндекс.Метрика
cron
Powered by phpBB © 2000, 2002, 2005, 2007 phpBB Group