\m/ 80's metal \m/

Информационно-аналитический форум "80 см пыли" (In Search We Trust) "У нас никто никуда не спешит"
Me For You - http://me-4u.com
It is currently 22 Sep 2019

All times are UTC + 3 hours

Spoiler
Chat - temporary registration for foreign users (please leave your application here)







Post new topic Reply to topic  [ 7 posts ] 
Author Message
 
PostPosted: 16 May 2013 
Работнечег
User avatar
Joined: 28 Aug 2007
Posts: 5995
Lоcаtion: г. Москва
Age: 30
Name: Дима
Image

Band: Killers
Album: 109
Label: Brennus
Genre: Speed Metal
Country: France
Format: Flac + Log + Cue + Covers
Size: 432 Mb

Line-Up:
Bruno Dolheguy - Vocals, Guitar
Patrick Oliver - Bass
Thierry Andrieu - Guitar, Backing Vocals
Nicko Andrieu (R.I.P. 2001) - Drums


Tracklist:
1. Le meilleur 04:19
2. Allié 02:42
3. Sang neuf 03:37
4. Méli-mélo 03:12
5. Légende 15:15
6. La peur de l'ennemi 04:25
7. Combien... 03:22
8. Furia 04:34
9. Humain 03:22
10. Le jour du siècle 03:44
11. French paradoxe 04:16
12. La mort dans l'âme 04:05

LOG
Exact Audio Copy V0.99 prebeta 5 from 4. May 2009

EAC extraction logfile from 16. May 2013, 19:47

Killers / 109

Used drive : PIONEER DVD-RW DVR-116D Adapter: 0 ID: 0

Read mode : Secure
Utilize accurate stream : Yes
Defeat audio cache : Yes
Make use of C2 pointers : No

Read offset correction : 96
Overread into Lead-In and Lead-Out : No
Fill up missing offset samples with silence : Yes
Delete leading and trailing silent blocks : No
Null samples used in CRC calculations : Yes
Used interface : Native Win32 interface for Win NT & 2000

Used output format : User Defined Encoder
Selected bitrate : 32 kBit/s
Quality : High
Add ID3 tag : No
Command line compressor : C:\Program Files\Exact Audio Copy\Flac\flac.exe
Additional command line options : -6 -V %s


TOC of the extracted CD

Track | Start | Length | Start sector | End sector
---------------------------------------------------------
1 | 0:00.00 | 4:15.37 | 0 | 19161
2 | 4:15.37 | 2:42.52 | 19162 | 31363
3 | 6:58.14 | 3:37.13 | 31364 | 47651
4 | 10:35.27 | 3:12.37 | 47652 | 62088
5 | 13:47.64 | 15:15.01 | 62089 | 130714
6 | 29:02.65 | 4:22.74 | 130715 | 150438
7 | 33:25.64 | 3:19.29 | 150439 | 165392
8 | 36:45.18 | 4:28.03 | 165393 | 185495
9 | 41:13.21 | 3:22.36 | 185496 | 200681
10 | 44:35.57 | 3:42.53 | 200682 | 217384
11 | 48:18.35 | 4:14.35 | 217385 | 236469
12 | 52:32.70 | 4:05.64 | 236470 | 254908


Range status and errors

Selected range

Filename D:\Музыка\Lossless\Killers - 109 (1999)\Killers - 109.wav

Peak level 97.7 %
Range quality 99.9 %
Copy CRC 5E15D5E9
Copy OK

No errors occurred


AccurateRip summary

Track 1 not present in database
Track 2 not present in database
Track 3 not present in database
Track 4 not present in database
Track 5 not present in database
Track 6 not present in database
Track 7 not present in database
Track 8 not present in database
Track 9 not present in database
Track 10 not present in database
Track 11 not present in database
Track 12 not present in database

None of the tracks are present in the AccurateRip database

End of status report

CUE
REM GENRE "Speed Metal"
REM DATE 1999
REM DISCID 9D0D460C
REM COMMENT "ExactAudioCopy v0.99pb5"
PERFORMER "Killers"
TITLE "109"
FILE "Killers - 109.flac" WAVE
TRACK 01 AUDIO
TITLE "Le Meilleur"
PERFORMER "Killers"
FLAGS DCP
INDEX 01 00:00:00
TRACK 02 AUDIO
TITLE "Allie"
PERFORMER "Killers"
FLAGS DCP
INDEX 01 04:15:37
TRACK 03 AUDIO
TITLE "Sang Neuf "
PERFORMER "Killers"
FLAGS DCP
INDEX 01 06:58:14
TRACK 04 AUDIO
TITLE "Meli-Melo"
PERFORMER "Killers"
FLAGS DCP
INDEX 01 10:35:27
TRACK 05 AUDIO
TITLE "Legende"
PERFORMER "Killers"
FLAGS DCP
INDEX 01 13:47:64
TRACK 06 AUDIO
TITLE "La Peur De L'ennemi"
PERFORMER "Killers"
FLAGS DCP
INDEX 01 29:02:65
TRACK 07 AUDIO
TITLE "Combien..."
PERFORMER "Killers"
FLAGS DCP
INDEX 01 33:25:64
TRACK 08 AUDIO
TITLE "Furia"
PERFORMER "Killers"
FLAGS DCP
INDEX 01 36:45:18
TRACK 09 AUDIO
TITLE "Humain"
PERFORMER "Killers"
FLAGS DCP
INDEX 01 41:13:21
TRACK 10 AUDIO
TITLE "Le Jour Du Siecle"
PERFORMER "Killers"
FLAGS DCP
INDEX 01 44:35:57
TRACK 11 AUDIO
TITLE "French Paradoxe"
PERFORMER "Killers"
FLAGS DCP
INDEX 01 48:18:35
TRACK 12 AUDIO
TITLE "La Mort Dans L'ame"
PERFORMER "Killers"
FLAGS DCP
INDEX 01 52:32:70


Rusfolder

До кучи, может кому-нибудь пригодится)


Top
 Profile E-mail  
 
 
PostPosted: 16 May 2013 
спирт 100%
User avatar
Joined: 22 Sep 2008
Posts: 4469
Age: 48
Name: Саня
Дим ,Спасибо! :true:


Top
 Profile  
 
 
PostPosted: 16 May 2013 
дядя Миша
User avatar
Joined: 17 Oct 2008
Posts: 3184
Lоcаtion: USSR
Age: 57
Name: Khy
Ух ты, у меня такого нет. Беру, спасибо Димон!Image


Top
 Profile  
 
 
PostPosted: 26 May 2013 
ТрэшЭрос
User avatar
Joined: 18 Jul 2011
Posts: 2304
Lоcаtion: Гулькевичи
Age: 44
Name: Александр
О как! :shok:
А у меня така облога:

Image Image

...и ФЛАК потрёпаный потрековый... :oops:

_________________
Thrash no trash!!!


Top
 Profile E-mail  
 
 
PostPosted: 26 May 2013 
Power Metal Maniac
User avatar
Joined: 09 Aug 2008
Posts: 6858
Lоcаtion: Москва
Age: 41
Name: Егор
Данный вариант - ремастер 2008 года, а у MetallicAS - оригинальное издание

_________________
Long Live Metal!


Top
 Profile  
 
 
PostPosted: 26 May 2013 
Работнечег
User avatar
Joined: 28 Aug 2007
Posts: 5995
Lоcаtion: г. Москва
Age: 30
Name: Дима
Абсолютно верно)


Top
 Profile E-mail  
 
 
PostPosted: 26 May 2013 
Хиппей (support team)
User avatar
Joined: 30 Jul 2007
Posts: 114418
Lоcаtion: Киев (Kyiv, UA)
Age: 46
Name: Andrey
:thanx: забрал в кучку :dance:

mirror: F-Bit l Narod

_________________


Top
 Profile E-mail  
 
Display posts from previous:  Sort by  
Post new topic Reply to topic  [ 7 posts ] 

All times are UTC + 3 hours


Who is online

Users browsing this forum: No registered users and 1 guest


You cannot post new topics in this forum
You cannot reply to topics in this forum
You cannot edit your posts in this forum
You cannot delete your posts in this forum
You cannot post attachments in this forum

Search for:
Яндекс.Метрика
Powered by phpBB © 2000, 2002, 2005, 2007 phpBB Group