\m/ 80's metal \m/

Информационно-аналитический форум "80 см пыли" (In Search We Trust) "У нас никто никуда не спешит"
Me For You - http://me-4u.com
It is currently 19 Oct 2019

All times are UTC + 3 hours

Spoiler
Chat - temporary registration for foreign users (please leave your application here)







Post new topic Reply to topic  [ 3 posts ] 
Author Message
 
PostPosted: 20 Oct 2012 
А может смените мне статус?..
User avatar
Joined: 24 Sep 2012
Posts: 856
Lоcаtion: Нижегородская обл.
Age: 49
Name: Вячеслав
Image

Исполнитель: Killer
Альбом: Young Blood
Жанр: Traditional Heavy Metal
Страна: Switzerland (Solothurn)
Формат Аудио: FLAC (Cue/Log/Image)+ All Scans
Продолжительность Звучания Альбома: 00:37:05
Размер Архива: 281 Mb (+ 3% recovery)
Источник (релизер): slayer19

Треклист:

01. I Want It (03:17)
02. Young Blood (03:46)
03. She Wants More (03:53)
04. Wild Boys (04:04)
05. Run for You (05:12)
06. Heaven and Hell (03:26)
07. Top Secret (04:28)
08. She's a Crazy Driver (03:39)
09. Heavy Metal (03:31)
10. The Show Is Over (01:49)

"Лог создания рипа"
Exact Audio Copy V1.0 beta 3 from 29. August 2011

Отчёт EAC об извлечении, выполненном 19. октября 2012, 15:53

Killer / Young Blood

Дисковод: Optiarc DVD RW AD-7200A Adapter: 0 ID: 0

Режим чтения : Достоверность
Использование точного потока : Да
Отключение кэша аудио : Да
Использование указателей C2 : Нет

Коррекция смещения при чтении : 48
Способность читать области Lead-in и Lead-out : Нет
Заполнение пропущенных сэмплов тишиной : Да
Удаление блоков с тишиной в начале и конце : Нет
При вычислениях CRC использовались нулевые сэмплы : Да
Интерфейс : Встроенный Win32-интерфейс для Win NT/2000

Выходной формат : Пользовательский кодировщик
Выбранный битрейт : 128 kBit/s
Качество : Высокий
Добавление ID3-тега : Нет
Утилита сжатия : C:\Program Files\FLAC\FLAC frontend.exe


TOC извлечённого CD

Трек | Старт | Длительность | Начальный сектор | Конечный сектор
---------------------------------------------------------------------
1 | 0:00.00 | 3:17.25 | 0 | 14799
2 | 3:17.25 | 3:45.67 | 14800 | 31741
3 | 7:03.17 | 3:52.55 | 31742 | 49196
4 | 10:55.72 | 4:04.35 | 49197 | 67531
5 | 15:00.32 | 5:11.38 | 67532 | 90894
6 | 20:11.70 | 3:26.35 | 90895 | 106379
7 | 23:38.30 | 4:28.00 | 106380 | 126479
8 | 28:06.30 | 3:38.72 | 126480 | 142901
9 | 31:45.27 | 3:31.00 | 142902 | 158726
10 | 35:16.27 | 1:48.48 | 158727 | 166874


Характеристики диапазона извлечения и сообщения об ошибках

Выбранный диапазон

Имя файла D:\МОИ ФАЙЛЫ\LOSSLESS\slayer19\Killer - Young Blood.wav

Пиковый уровень 100.0 %
Скорость извлечения 3.7 X
Качество диапазона 100.0 %
CRC теста 4D280751
CRC копии 4D280751
Копирование... OK

Ошибок не произошло


AccurateRip: сводка

Трек 1 : извлечено точно (доверие 1) [CFFD4C7E] (AR v1)
Трек 2 : извлечено точно (доверие 1) [30042297] (AR v1)
Трек 3 : извлечено точно (доверие 1) [CA339325] (AR v1)
Трек 4 : извлечено точно (доверие 1) [ABF59647] (AR v1)
Трек 5 : извлечено точно (доверие 1) [1D7A915C] (AR v1)
Трек 6 : извлечено точно (доверие 1) [ECCA5D11] (AR v1)
Трек 7 : извлечено точно (доверие 1) [D40B8FBD] (AR v1)
Трек 8 : извлечено точно (доверие 1) [E8EFC114] (AR v1)
Трек 9 : извлечено точно (доверие 1) [5DF4ED0B] (AR v1)
Трек 10 : извлечено точно (доверие 1) [31311F7A] (AR v1)

Все треки извлечены точно

Конец отчёта

---- CUETools DB Plugin V2.1.3

[CTDB TOCID: .vsOKY_C3GKsYfqSb3VB5Jh2C64-] disk not present in database, Submit result: .vsOKY_C3GKsYfqSb3VB5Jh2C64- has been uploaded


==== Контрольная сумма отчёта 6606E2CCCED0253A7964E51D88F1E97C3848ED58ACBE8C9DB29E4922AA8A50AC ====

"Фото"
Image


Скачать: Killer - Young Blood (1986) by slayer19.rar

_________________
Image


Top
 Profile E-mail  
 
 
PostPosted: 07 Apr 2013 
Работнечег
User avatar
Joined: 28 Aug 2007
Posts: 6035
Lоcаtion: г. Москва
Age: 30
Name: Дима
Спасибо! Есть другая версия этого альбома, будет интересно сравнить по звуку)


Top
 Profile E-mail  
 
 
PostPosted: 07 Apr 2013 
Хиппей (support team)
User avatar
Joined: 30 Jul 2007
Posts: 114929
Lоcаtion: Киев (Kyiv, UA)
Age: 46
Name: Andrey
:thanx:

mirror: F-Bit l Narod

_________________


Top
 Profile E-mail  
 
Display posts from previous:  Sort by  
Post new topic Reply to topic  [ 3 posts ] 

All times are UTC + 3 hours


Who is online

Users browsing this forum: No registered users and 1 guest


You cannot post new topics in this forum
You cannot reply to topics in this forum
You cannot edit your posts in this forum
You cannot delete your posts in this forum
You cannot post attachments in this forum

Search for:
Яндекс.Метрика
Powered by phpBB © 2000, 2002, 2005, 2007 phpBB Group