\m/ 80's metal \m/

Информационно-аналитический форум "80 см пыли" (In Search We Trust) "У нас никто никуда не спешит"
Me For You - http://me-4u.com
It is currently 21 May 2019

All times are UTC + 3 hours

Spoiler
Chat - temporary registration for foreign users (please leave your application here)







Post new topic Reply to topic  [ 1 post ] 
Author Message
 
PostPosted: 20 Oct 2012 
А может смените мне статус?..
User avatar
Joined: 24 Sep 2012
Posts: 856
Lоcаtion: Нижегородская обл.
Age: 48
Name: Вячеслав
Image

Исполнитель: Killer
Альбом: Thriller
Жанр: Traditional Heavy Metal
Страна: Switzerland (Solothurn)
Формат Аудио: FLAC (Cue/Log/Image)+ All Scans
Продолжительность Звучания Альбома: 00:38:02
Размер Архива: 283 Mb (+ 3% recovery)
Источник (релизер): slayer19

Треклист:

1. Out on the Front Line (04:34)
2. Stealin' My Mind Away (04:48)
3. Break My Chains (04:44)
4. The Great Escape (04:59)
5. Sell Your Soul (04:31)
6. Never Touch a Tiger (04:27)
7. Take Me, Break Me, Shake Me (03:33)
8. Prisoner of the Night (06:26)

"Лог создания рипа"
Exact Audio Copy V1.0 beta 3 from 29. August 2011

Отчёт EAC об извлечении, выполненном 19. октября 2012, 14:53

Killer / Thriller

Дисковод: Optiarc DVD RW AD-7200A Adapter: 0 ID: 0

Режим чтения : Достоверность
Использование точного потока : Да
Отключение кэша аудио : Да
Использование указателей C2 : Нет

Коррекция смещения при чтении : 48
Способность читать области Lead-in и Lead-out : Нет
Заполнение пропущенных сэмплов тишиной : Да
Удаление блоков с тишиной в начале и конце : Нет
При вычислениях CRC использовались нулевые сэмплы : Да
Интерфейс : Встроенный Win32-интерфейс для Win NT/2000

Выходной формат : Пользовательский кодировщик
Выбранный битрейт : 128 kBit/s
Качество : Высокий
Добавление ID3-тега : Нет
Утилита сжатия : C:\Program Files\FLAC\FLAC frontend.exe


TOC извлечённого CD

Трек | Старт | Длительность | Начальный сектор | Конечный сектор
---------------------------------------------------------------------
1 | 0:00.00 | 4:33.40 | 0 | 20514
2 | 4:33.40 | 4:48.32 | 20515 | 42146
3 | 9:21.72 | 4:43.48 | 42147 | 63419
4 | 14:05.45 | 4:59.20 | 63420 | 85864
5 | 19:04.65 | 4:31.16 | 85865 | 106205
6 | 23:36.06 | 4:27.10 | 106206 | 126240
7 | 28:03.16 | 3:32.48 | 126241 | 142188
8 | 31:35.64 | 6:25.50 | 142189 | 171113


Характеристики диапазона извлечения и сообщения об ошибках

Выбранный диапазон

Имя файла D:\МОИ ФАЙЛЫ\LOSSLESS\slayer19\Killer - Thriller.wav

Пиковый уровень 93.7 %
Скорость извлечения 3.7 X
Качество диапазона 99.9 %
CRC теста 842ADE07
CRC копии 842ADE07
Копирование... OK

Ошибок не произошло


AccurateRip: сводка

Трек 1 : извлечено точно (доверие 1) [1266B242] (AR v1)
Трек 2 : извлечено точно (доверие 1) [9324D824] (AR v1)
Трек 3 : извлечено точно (доверие 1) [E915212A] (AR v1)
Трек 4 : извлечено точно (доверие 1) [15353C4C] (AR v1)
Трек 5 : извлечено точно (доверие 1) [97B25E39] (AR v1)
Трек 6 : извлечено точно (доверие 1) [E7AA00FC] (AR v1)
Трек 7 : извлечено точно (доверие 1) [452AABC9] (AR v1)
Трек 8 : извлечено точно (доверие 1) [5753B8A2] (AR v1)

Все треки извлечены точно

Конец отчёта

---- CUETools DB Plugin V2.1.3

[CTDB TOCID: 3kaAVMUagnVv91J2SoAv72tkyLs-] disk not present in database, Submit result: 3kaAVMUagnVv91J2SoAv72tkyLs- has been uploaded


==== Контрольная сумма отчёта 3359D8F1EED8C59827F652597E1DB363DAD3EA151D1F26C6351BDCA34A780BBD ====

"Фото"
Image


Cкачать: Killer - Thriller (1982) by slayer19.rar

_________________
Image


Top
 Profile E-mail  
 
Display posts from previous:  Sort by  
Post new topic Reply to topic  [ 1 post ] 

All times are UTC + 3 hours


Who is online

Users browsing this forum: No registered users and 1 guest


You cannot post new topics in this forum
You cannot reply to topics in this forum
You cannot edit your posts in this forum
You cannot delete your posts in this forum
You cannot post attachments in this forum

Search for:
Яндекс.Метрика
Powered by phpBB © 2000, 2002, 2005, 2007 phpBB Group