\m/ 80's metal \m/

Информационно-аналитический форум "80 см пыли" (In Search We Trust) "У нас никто никуда не спешит"
Me For You - http://me-4u.com
It is currently 13 Dec 2019

All times are UTC + 3 hours

Spoiler
Chat - temporary registration for foreign users (please leave your application here)







Post new topic Reply to topic  [ 3 posts ] 
Author Message
 
PostPosted: 18 Oct 2012 
А может смените мне статус?..
User avatar
Joined: 24 Sep 2012
Posts: 856
Lоcаtion: Нижегородская обл.
Age: 49
Name: Вячеслав
Image

Исполнитель: Killer
Альбом: Stronger Than Ever
Жанр: Traditional Heavy Metal
Страна: Switzerland (Solothurn)
Формат Аудио: FLAC (Cue/Log/Image)+ All Scans
Продолжительность Звучания Альбома: 00:37:35
Размер Архива: 263 Mb (+ 3% recovery)
Источник (релизер): slayer19

Треклист:

01. The Eye Of Time (00:55)
02. Stronger Than Ever (03:45)
03. Killer Lady (03:36)
04. Rock 'n' Roll Soldiers (03:49)
05. On The Rocks (04:24)
06. Turn It Loud (03:35)
07. Blood On The Black Flag (03:34)
08. Evil Dies (03:43)
09. Stay With Me (06:25)
10. The Right Hand Of The Devil (03:49)

"Лог создания рипа"
Exact Audio Copy V1.0 beta 3 from 29. August 2011

Отчёт EAC об извлечении, выполненном 18. октября 2012, 19:34

Killer / Stronger Than Ever

Дисковод: Optiarc DVD RW AD-7200A Adapter: 0 ID: 0

Режим чтения : Достоверность
Использование точного потока : Да
Отключение кэша аудио : Да
Использование указателей C2 : Нет

Коррекция смещения при чтении : 48
Способность читать области Lead-in и Lead-out : Нет
Заполнение пропущенных сэмплов тишиной : Да
Удаление блоков с тишиной в начале и конце : Нет
При вычислениях CRC использовались нулевые сэмплы : Да
Интерфейс : Встроенный Win32-интерфейс для Win NT/2000

Выходной формат : Пользовательский кодировщик
Выбранный битрейт : 128 kBit/s
Качество : Высокий
Добавление ID3-тега : Нет
Утилита сжатия : C:\Program Files\FLAC\FLAC frontend.exe

TOC извлечённого CD

Трек | Старт | Длительность | Начальный сектор | Конечный сектор
---------------------------------------------------------------------
1 | 0:00.00 | 0:55.35 | 0 | 4159
2 | 0:55.35 | 3:45.17 | 4160 | 21051
3 | 4:40.52 | 3:35.41 | 21052 | 37217
4 | 8:16.18 | 3:48.61 | 37218 | 54378
5 | 12:05.04 | 4:23.38 | 54379 | 74141
6 | 16:28.42 | 3:34.58 | 74142 | 90249
7 | 20:03.25 | 3:34.23 | 90250 | 106322
8 | 23:37.48 | 3:43.03 | 106323 | 123050
9 | 27:20.51 | 6:24.43 | 123051 | 151893
10 | 33:45.19 | 3:49.34 | 151894 | 169102

Характеристики диапазона извлечения и сообщения об ошибках

Выбранный диапазон

Имя файла D:\МОИ ФАЙЛЫ\LOSSLESS\slayer19\Killer - Stronger Than Ever.wav

Пиковый уровень 99.2 %
Скорость извлечения 3.6 X
Качество диапазона 100.0 %
CRC теста 3BB789D3
CRC копии 3BB789D3
Копирование... OK

Ошибок не произошло

AccurateRip: сводка

Трек 1 : извлечено точно (доверие 1) [7B4E262E] (AR v1)
Трек 2 : извлечено точно (доверие 1) [84B89318] (AR v1)
Трек 3 : извлечено точно (доверие 1) [BE182269] (AR v1)
Трек 4 : извлечено точно (доверие 1) [61D47EC5] (AR v1)
Трек 5 : извлечено точно (доверие 1) [B38B60F3] (AR v1)
Трек 6 : извлечено точно (доверие 1) [8D8B257A] (AR v1)
Трек 7 : извлечено точно (доверие 1) [4A7FE887] (AR v1)
Трек 8 : извлечено точно (доверие 1) [B29DE224] (AR v1)
Трек 9 : извлечено точно (доверие 1) [6E363ED4] (AR v1)
Трек 10 : извлечено точно (доверие 1) [8E562C36] (AR v1)

Все треки извлечены точно

Конец отчёта

---- CUETools DB Plugin V2.1.3

[CTDB TOCID: zmuE9TI14mJatPl0XEsa6KqNL3o-] disk not present in database, Submit result: zmuE9TI14mJatPl0XEsa6KqNL3o- has been uploaded

==== Контрольная сумма отчёта 06B7D0EA4D2EF644BC568EE1CF572064FCAAD3E7C58DADEF160FA86A3336F119 ====

"Скриншот спектра частот"
Image

"Фото"
Image


Cкачать: Killer - Stronger Than Ever (1984) by slayer19.rar

_________________
Image


Top
 Profile E-mail  
 
 
PostPosted: 18 Oct 2012 
спирт 100%
User avatar
Joined: 22 Sep 2008
Posts: 4501
Age: 48
Name: Саня
Спасибо! Что то сегодня ''НАРОД'' барахлит :umnik:
не могу скачать


Top
 Profile  
 
 
PostPosted: 19 Oct 2012 
А может смените мне статус?..
User avatar
Joined: 25 Mar 2009
Posts: 628
Lоcаtion: Нижний Новгород
Age: 49
Name: Владимир
"НАРОД" исправился.... качаю! :true:


Top
 Profile  
 
Display posts from previous:  Sort by  
Post new topic Reply to topic  [ 3 posts ] 

All times are UTC + 3 hours


Who is online

Users browsing this forum: No registered users and 1 guest


You cannot post new topics in this forum
You cannot reply to topics in this forum
You cannot edit your posts in this forum
You cannot delete your posts in this forum
You cannot post attachments in this forum

Search for:
Яндекс.Метрика
Powered by phpBB © 2000, 2002, 2005, 2007 phpBB Group