\m/ 80's metal \m/

Информационно-аналитический форум "80 см пыли" (In Search We Trust) "У нас никто никуда не спешит"
Me For You - http://me-4u.com
It is currently 13 Dec 2019

All times are UTC + 3 hours

Spoiler
Chat - temporary registration for foreign users (please leave your application here)







Post new topic Reply to topic  [ 1 post ] 
Author Message
 
PostPosted: 18 Oct 2012 
А может смените мне статус?..
User avatar
Joined: 24 Sep 2012
Posts: 856
Lоcаtion: Нижегородская обл.
Age: 49
Name: Вячеслав
Image

Исполнитель: Killer
Альбом: Ready For Hell
Жанр: Heavy Metal
Страна: Belgium ( Antwerp)
Страна-производитель диска: Germany
Лейбл & № Catalog: Mausoleum / 704105 2
Формат Аудио: FLAC (Cue/Log/Image)+ All Scans
Продолжительность Звучания Альбома: 00:33:56
Размер Архива: 244 Mb (+ 3% recovery)
Источник (релизер): slayer19

Треклист:

1. Ready For Hell (03:41)
2. Killer (03:38)
3. Secret Love (04:47)
4. I Know (04:33)
5. Rock And Roll Fan (02:51)
6. Back Shooter (04:02)
7. Laws Are Made To Break (02:50)
8. It's Too Late (04:05)
9. Dressed To Kill (03:29)

"Лог создания рипа"
Exact Audio Copy V1.0 beta 3 from 29. August 2011

Отчёт EAC об извлечении, выполненном 18. октября 2012, 13:23

Killer / Ready for Hell

Дисковод: Optiarc DVD RW AD-7200A Adapter: 0 ID: 0

Режим чтения : Достоверность
Использование точного потока : Да
Отключение кэша аудио : Да
Использование указателей C2 : Нет

Коррекция смещения при чтении : 48
Способность читать области Lead-in и Lead-out : Нет
Заполнение пропущенных сэмплов тишиной : Да
Удаление блоков с тишиной в начале и конце : Нет
При вычислениях CRC использовались нулевые сэмплы : Да
Интерфейс : Встроенный Win32-интерфейс для Win NT/2000

Выходной формат : Пользовательский кодировщик
Выбранный битрейт : 128 kBit/s
Качество : Высокий
Добавление ID3-тега : Нет
Утилита сжатия : C:\Program Files\FLAC\FLAC frontend.exe

TOC извлечённого CD

Трек | Старт | Длительность | Начальный сектор | Конечный сектор
---------------------------------------------------------------------
1 | 0:00.00 | 3:40.57 | 0 | 16556
2 | 3:40.57 | 3:38.15 | 16557 | 32921
3 | 7:18.72 | 4:46.45 | 32922 | 54416
4 | 12:05.42 | 4:33.15 | 54417 | 74906
5 | 16:38.57 | 2:50.68 | 74907 | 87724
6 | 19:29.50 | 4:01.45 | 87725 | 105844
7 | 23:31.20 | 2:49.70 | 105845 | 118589
8 | 26:21.15 | 4:05.15 | 118590 | 136979
9 | 30:26.30 | 3:29.20 | 136980 | 152674

Характеристики диапазона извлечения и сообщения об ошибках

Выбранный диапазон

Имя файла D:\МОИ ФАЙЛЫ\LOSSLESS\slayer19\Killer - Ready for Hell.wav

Пиковый уровень 98.9 %
Скорость извлечения 3.4 X
Качество диапазона 100.0 %
CRC теста 535C1511
CRC копии 535C1511
Копирование... OK

Ошибок не произошло

AccurateRip: сводка

Трек 1 отсутствует в базе данных
Трек 2 отсутствует в базе данных
Трек 3 отсутствует в базе данных
Трек 4 отсутствует в базе данных
Трек 5 отсутствует в базе данных
Трек 6 отсутствует в базе данных
Трек 7 отсутствует в базе данных
Трек 8 отсутствует в базе данных
Трек 9 отсутствует в базе данных

Ни одного трека нет в базе AccurateRip

Конец отчёта

---- CUETools DB Plugin V2.1.3

[CTDB TOCID: VaQIg4acWpsVzGCK0WHAtaDwbM0-] disk not present in database, Submit result: VaQIg4acWpsVzGCK0WHAtaDwbM0- has been uploaded

==== Контрольная сумма отчёта 74906A7CE493D3B7D396C10C55C12DD38B73A693D394AE0AC3F4F97F214D6317 ====

"Фото"
Image


Cкачать: Killer - Ready For Hell 1980 (Reissued 1994) by slayer19.rar

_________________
Image


Top
 Profile E-mail  
 
Display posts from previous:  Sort by  
Post new topic Reply to topic  [ 1 post ] 

All times are UTC + 3 hours


Who is online

Users browsing this forum: No registered users and 1 guest


You cannot post new topics in this forum
You cannot reply to topics in this forum
You cannot edit your posts in this forum
You cannot delete your posts in this forum
You cannot post attachments in this forum

Search for:
Яндекс.Метрика
Powered by phpBB © 2000, 2002, 2005, 2007 phpBB Group