\m/ 80's metal \m/

Информационно-аналитический форум "80 см пыли" (In Search We Trust) "У нас никто никуда не спешит"
Me For You - http://me-4u.com
It is currently 19 Oct 2019

All times are UTC + 3 hours

Spoiler
Chat - temporary registration for foreign users (please leave your application here)







Post new topic Reply to topic  [ 3 posts ] 
Author Message
 
PostPosted: 18 Aug 2012 
Работнечег
User avatar
Joined: 28 Aug 2007
Posts: 6035
Lоcаtion: г. Москва
Age: 30
Name: Дима
Image

Band: Killers
Album: Ennemis En Public
Label: Brennus
Genre: Speed Metal
Country: France
Format: Flac + Log + Cue + Covers
Size: 518 Mb

Line-Up:
Bruno Dolheguy - Vocals, Guitar
Ronan Jacques - Guitars
Alain Garces - Bass
Patrick Soria - Drums


Tracklist:
1. Ennemis publics n°1 04:28
2. Chevaliers du déshonneur 03:25
3. Clandestinité 04:32
4. Fatalité 05:54
5. Délire de mort 06:42
6. Minorité 04:32
7. Résistance 03:24
8. Ametsetan 05:06
9. Morituri te salutant 04:14
10. Travelling flash 03:52
11. Contre-courant 03:41
12. L'assassin 07:27
13. L'aigle noir (Barbara cover) 05:30
14. Rosalind 04:37
15. Roi du speed 03:38

LOG
Exact Audio Copy V0.99 prebeta 5 from 4. May 2009

EAC extraction logfile from 18. August 2012, 16:48

Killers / Ennemis en Public

Used drive : PIONEER DVD-RW DVR-116D Adapter: 0 ID: 0

Read mode : Secure
Utilize accurate stream : Yes
Defeat audio cache : Yes
Make use of C2 pointers : No

Read offset correction : 96
Overread into Lead-In and Lead-Out : No
Fill up missing offset samples with silence : Yes
Delete leading and trailing silent blocks : No
Null samples used in CRC calculations : Yes
Used interface : Native Win32 interface for Win NT & 2000

Used output format : User Defined Encoder
Selected bitrate : 32 kBit/s
Quality : High
Add ID3 tag : No
Command line compressor : C:\Program Files\Exact Audio Copy\Flac\flac.exe
Additional command line options : -6 -V %s


TOC of the extracted CD

Track | Start | Length | Start sector | End sector
---------------------------------------------------------
1 | 0:00.00 | 4:26.70 | 0 | 20019
2 | 4:26.70 | 3:25.05 | 20020 | 35399
3 | 7:52.00 | 4:32.10 | 35400 | 55809
4 | 12:24.10 | 5:54.00 | 55810 | 82359
5 | 18:18.10 | 6:42.23 | 82360 | 112532
6 | 25:00.33 | 4:31.45 | 112533 | 132902
7 | 29:32.03 | 3:27.32 | 132903 | 148459
8 | 32:59.35 | 5:05.48 | 148460 | 171382
9 | 38:05.08 | 4:14.65 | 171383 | 190497
10 | 42:19.73 | 4:15.47 | 190498 | 209669
11 | 46:35.45 | 3:17.08 | 209670 | 224452
12 | 49:52.53 | 7:45.55 | 224453 | 259382
13 | 57:38.33 | 5:20.72 | 259383 | 283454
14 | 62:59.30 | 4:27.33 | 283455 | 303512
15 | 67:26.63 | 3:40.37 | 303513 | 320049


Range status and errors

Selected range

Filename D:\Музыка\Lossless\Killers - Ennemis En Public (1996)\Killers - Ennemis en Public.wav

Peak level 97.7 %
Range quality 99.9 %
Copy CRC 55271A39
Copy OK

No errors occurred


AccurateRip summary

Track 1 not present in database
Track 2 not present in database
Track 3 not present in database
Track 4 not present in database
Track 5 not present in database
Track 6 not present in database
Track 7 not present in database
Track 8 not present in database
Track 9 not present in database
Track 10 not present in database
Track 11 not present in database
Track 12 not present in database
Track 13 not present in database
Track 14 not present in database
Track 15 not present in database

None of the tracks are present in the AccurateRip database

End of status report

CUE
REM GENRE "Speed Metal"
REM DATE 1996
REM DISCID E210AB0F
REM COMMENT "ExactAudioCopy v0.99pb5"
PERFORMER "Killers"
TITLE "Ennemis en Public"
FILE "Killers - Ennemis en Public.flac" WAVE
TRACK 01 AUDIO
TITLE "Ennemis Publics №1"
PERFORMER "Killers"
FLAGS DCP
INDEX 01 00:00:00
TRACK 02 AUDIO
TITLE "Chevaliers Du Deshonneur"
PERFORMER "Killers"
FLAGS DCP
INDEX 01 04:26:70
TRACK 03 AUDIO
TITLE "Clandestinite"
PERFORMER "Killers"
FLAGS DCP
INDEX 01 07:52:00
TRACK 04 AUDIO
TITLE "Fatalite"
PERFORMER "Killers"
FLAGS DCP
INDEX 01 12:24:10
TRACK 05 AUDIO
TITLE "Delire De Mort"
PERFORMER "Killers"
FLAGS DCP
INDEX 01 18:18:10
TRACK 06 AUDIO
TITLE "Minorite"
PERFORMER "Killers"
FLAGS DCP
INDEX 01 25:00:33
TRACK 07 AUDIO
TITLE "Resistance"
PERFORMER "Killers"
FLAGS DCP
INDEX 01 29:32:03
TRACK 08 AUDIO
TITLE "Ametsetan"
PERFORMER "Killers"
FLAGS DCP
INDEX 01 32:59:35
TRACK 09 AUDIO
TITLE "Morituri Te Salutant"
PERFORMER "Killers"
FLAGS DCP
INDEX 01 38:05:08
TRACK 10 AUDIO
TITLE "Travelling Flash"
PERFORMER "Killers"
FLAGS DCP
INDEX 01 42:19:73
TRACK 11 AUDIO
TITLE "Contre - Courant"
PERFORMER "Killers"
FLAGS DCP
INDEX 01 46:35:45
TRACK 12 AUDIO
TITLE "L'Assassin"
PERFORMER "Killers"
FLAGS DCP
INDEX 01 49:52:53
TRACK 13 AUDIO
TITLE "L'Aigle Noir"
PERFORMER "Killers"
FLAGS DCP
INDEX 01 57:38:33
TRACK 14 AUDIO
TITLE "Rosalind"
PERFORMER "Killers"
FLAGS DCP
INDEX 01 62:59:30
TRACK 15 AUDIO
TITLE "Roi Du Speed"
PERFORMER "Killers"
FLAGS DCP
INDEX 01 67:26:63


Narod.Ru
Первый концертник этой незабываемой группы!


Top
 Profile E-mail  
 
 
PostPosted: 19 Aug 2012 
Хиппей (support team)
User avatar
Joined: 30 Jul 2007
Posts: 114929
Lоcаtion: Киев (Kyiv, UA)
Age: 46
Name: Andrey
:thanx:

_________________


Top
 Profile E-mail  
 
 
PostPosted: 19 Aug 2012 
Генеральный thrasher
User avatar
Joined: 03 Oct 2008
Posts: 3741
Lоcаtion: Ханты-Мансийский АО
Age: 44
Name: Сергей
Спасибо,Дмитрий! :drink:


Top
 Profile  
 
Display posts from previous:  Sort by  
Post new topic Reply to topic  [ 3 posts ] 

All times are UTC + 3 hours


Who is online

Users browsing this forum: No registered users and 1 guest


You cannot post new topics in this forum
You cannot reply to topics in this forum
You cannot edit your posts in this forum
You cannot delete your posts in this forum
You cannot post attachments in this forum

Search for:
Яндекс.Метрика
Powered by phpBB © 2000, 2002, 2005, 2007 phpBB Group