\m/ 80's metal \m/

Информационно-аналитический форум "80 см пыли" (In Search We Trust) "У нас никто никуда не спешит"
Me For You - http://me-4u.com
It is currently 22 Sep 2019

All times are UTC + 3 hours

Spoiler
Chat - temporary registration for foreign users (please leave your application here)







Post new topic Reply to topic  [ 3 posts ] 
Author Message
 
PostPosted: 24 Jul 2012 
Труъ
User avatar
Joined: 05 Oct 2008
Posts: 194
Lоcаtion: Saint Petersburg
Age: 46
Name: Jesse
Image

KARMA - Leave Now!!!

Year: 2005
Style: Progressive Power Metal
Country: Brazil (São Paulo)
Label: VICTOR SEOUL RECORDS [SRCD-2881]
Format: EAC-FLAC+CUE+LOG+ 5% recovery + SCANS
Size: 581 Mb


Image

TRACK LIST:
1. Leave Now
2. Crawl
3. Life
4. Older
5. I Swear
6. War (The Circus Arrived)
7. Itґs Easier
8. O.D
9. Voodoo Doll
10. Iґm Yours
11. You
12. Buddha
13. Friend
14. Real Blue
15. It’s Easier (acoustic bonus)
16. Older (acoustic bonus)

Produced by Thiago Bianchi & Karma

LINE-UP:
Thiago Bianchi - vocals (Stonehenge (Bra))
Chico Dehira - guitars (Di'Anno)
Felipe Andreoli - bass (Angra, Firesign, Di'Anno, Kiko Loureiro)
Fabrizio Di Sarno - keys (Symbols, Diablerie (Bra))
Marcell Cardoso - drums (Firesign, Diablerie (Bra))


log
Exact Audio Copy V0.99 prebeta 4 from 23. January 2008

Отчёт EAC об извлечении, выполненном 22. июля 2010, 2:28

KARMA / Leave Now!!!

Дисковод: ASUS CRW-5224A Adapter: 3 ID: 0

Режим чтения : Достоверность
Использование точного потока : Да
Отключение кэша аудио : Да
Использование указателей C2 : Нет

Коррекция смещения при чтении : 6
Способность читать области Lead-in и Lead-out : Нет
Заполнение пропущенных сэмплов тишиной : Да
Удаление блоков с тишиной в начале и конце : Нет
При вычислениях CRC использовались нулевые сэмплы : Да
Интерфейс : Установленный внешний ASPI-интерфейс

Выходной формат : Внутренние WAV-операции
Формат сэмплов : 44.100 Гц; 16 бит; стерео


TOC извлечённого CD

Трек | Старт | Длительность | Начальный сектор | Конечный сектор
---------------------------------------------------------------------
1 | 0:00.00 | 5:07.05 | 0 | 23029
2 | 5:07.05 | 3:30.15 | 23030 | 38794
3 | 8:37.20 | 4:08.25 | 38795 | 57419
4 | 12:45.45 | 3:31.05 | 57420 | 73249
5 | 16:16.50 | 4:39.35 | 73250 | 94209
6 | 20:56.10 | 5:32.35 | 94210 | 119144
7 | 26:28.45 | 4:12.55 | 119145 | 138099
8 | 30:41.25 | 4:06.65 | 138100 | 156614
9 | 34:48.15 | 4:50.40 | 156615 | 178404
10 | 39:38.55 | 3:53.60 | 178405 | 195939
11 | 43:32.40 | 4:41.10 | 195940 | 217024
12 | 48:13.50 | 5:07.60 | 217025 | 240109
13 | 53:21.35 | 5:20.50 | 240110 | 264159
14 | 58:42.10 | 6:22.00 | 264160 | 292809
15 | 65:04.10 | 3:29.10 | 292810 | 308494
16 | 68:33.20 | 3:12.15 | 308495 | 322909


Характеристики диапазона извлечения и сообщения об ошибках

Выбранный диапазон

Имя файла H:CdKARMA - Leave Now!!! by Omarao.wav

Пиковый уровень 97.9 %
Качество диапазона 100.0 %
CRC копии C09BAEF9
Копирование... OK

Ошибок не произошло

Конец отчёта


NAROD
password: jesse


Top
 Profile  
 
 
PostPosted: 25 Jul 2012 
Хиппей (support team)
User avatar
Joined: 30 Jul 2007
Posts: 114418
Lоcаtion: Киев (Kyiv, UA)
Age: 46
Name: Andrey
:thanx:

_________________


Top
 Profile E-mail  
 
 
PostPosted: 24 Oct 2012 
Power Metal Maniac
User avatar
Joined: 09 Aug 2008
Posts: 6858
Lоcаtion: Москва
Age: 41
Name: Егор
:thanx:

_________________
Long Live Metal!


Top
 Profile  
 
Display posts from previous:  Sort by  
Post new topic Reply to topic  [ 3 posts ] 

All times are UTC + 3 hours


Who is online

Users browsing this forum: No registered users and 1 guest


You cannot post new topics in this forum
You cannot reply to topics in this forum
You cannot edit your posts in this forum
You cannot delete your posts in this forum
You cannot post attachments in this forum

Search for:
Яндекс.Метрика
Powered by phpBB © 2000, 2002, 2005, 2007 phpBB Group