\m/ 80's metal \m/

Информационно-аналитический форум "80 см пыли" (In Search We Trust) "У нас никто никуда не спешит"
Me For You - http://me-4u.com
It is currently 26 Mar 2019

All times are UTC + 3 hours

Spoiler
Chat - temporary registration for foreign users (please leave your application here)







Post new topic Reply to topic  [ 6 posts ] 
Author Message
 
PostPosted: 16 Jun 2012 
Хиппей (support team)
User avatar
Joined: 30 Jul 2007
Posts: 111167
Lоcаtion: Киев (Kyiv, UA)
Age: 45
Name: Andrey
Kraze - 2002 - Devil In Disguise [flac]

Image

Image

Genre: Heavy Metal/Speed Metal 80's
Location: USA
Format: flac + cue + log + scans
Size: 415 Mb


Line-up:

Cory Laity - vocals, guitars
Tim Landis - guitars
Chris Langley - bass
Gary Long - drums

    1. Devil In Disguise - 03:28
    2. M.A.D.D. - 04:23
    3. Death Row - 04:47
    4. Solar Strike - 03:46
    5. Onward To War - 04:15
    6. On The Run - 03:47
    7. Nuclear Nightmare - 04:14
    8. Mentally Insane - 03:31
    9. Liar - 04:47
    10. Self Infliction - 03:49
    11. Land Of Sorcery - 05:15
    12. Stand, Be Tall - 05:04
    13. Watch You Burn - 03:11

    TPT: 54:17

Это сборник ранее неизданных официально демок группы.
Коллектив мне весьма и весьма понравился. Чистый American Heavy/Speed Metal тех лет - скоростной, мелодично-хитовый и очень толковый. Жаль запись не очень по качеству. И еще очень жаль, что группа в то время так и не смогла выпустить полноформатник. Иначе быть бы им в одной "упряжке" с Metal Church, Agent Steel и прочими титанами жанра. Только эти кк раз миновали такой стиль как Power Heavy. Что и хорошо - меньше пафоса в песнях. Всё предельно чётко, просто и сразу же залипает в уши.
Слушая этот сборник можно прекрасно представить, как группа быстро прогрессировала в развитии - от хэви, до спида, миную пауэр и почти добежала до трэша :dance:

7/10

lossless - MultiUp l Narod

mp3 - MultiUp l M-Fire l Narod

phpBB [youtube]


Источник: откуда-то спёрто давно, смотрите по логу, авось узнаете автора рипа :thanx:

ps. Спектр уныл и беспощаден... :yyy:

log
Exact Audio Copy V1.0 beta 1 from 15. November 2010

EAC extraction logfile from 14. October 2011, 18:26

Kraze / Devil In Disguise

Used drive : TSSTcorp - CDDVDW TS-L633A AS00 Adapter: 2 ID: 1

Read mode : Secure
Utilize accurate stream : Yes
Defeat audio cache : Yes
Make use of C2 pointers : No

Read offset correction : 6
Overread into Lead-In and Lead-Out : No
Fill up missing offset samples with silence : Yes
Delete leading and trailing silent blocks : No
Null samples used in CRC calculations : Yes
Used interface : Native Win32 interface for Win NT & 2000

Used output format : Internal WAV Routines
Sample format : 44.100 Hz; 16 Bit; Stereo


TOC of the extracted CD

Track | Start | Length | Start sector | End sector
---------------------------------------------------------
1 | 0:00.00 | 3:28.64 | 0 | 15663
2 | 3:28.64 | 4:23.43 | 15664 | 35431
3 | 7:52.32 | 4:47.10 | 35432 | 56966
4 | 12:39.42 | 3:46.65 | 56967 | 73981
5 | 16:26.32 | 4:15.52 | 73982 | 93158
6 | 20:42.09 | 3:47.42 | 93159 | 110225
7 | 24:29.51 | 4:14.57 | 110226 | 129332
8 | 28:44.33 | 3:31.55 | 129333 | 145212
9 | 32:16.13 | 4:47.20 | 145213 | 166757
10 | 37:03.33 | 3:49.11 | 166758 | 183943
11 | 40:52.44 | 5:15.48 | 183944 | 207616
12 | 46:08.17 | 5:04.03 | 207617 | 230419
13 | 51:12.20 | 3:11.06 | 230420 | 244750


Range status and errors

Selected range

Filename D:\LOSSLESS\UPLOAD\Kraze 2002 - Devil In Disguise\Kraze - Devil In Disguise.wav

Peak level 98.8 %
Extraction speed 0.5 X
Range quality 100.0 %
Test CRC 375767B7
Copy CRC 375767B7
Copy OK

No errors occurred


AccurateRip summary

Track 1 accurately ripped (confidence 1) [C8559A24]
Track 2 accurately ripped (confidence 1) [D2C5ADF6]
Track 3 accurately ripped (confidence 1) [F0A38720]
Track 4 accurately ripped (confidence 1) [F06DDD04]
Track 5 accurately ripped (confidence 1) [0F406FC9]
Track 6 accurately ripped (confidence 1) [A2806332]
Track 7 accurately ripped (confidence 1) [5D0ACC5E]
Track 8 accurately ripped (confidence 1) [E6733DE5]
Track 9 accurately ripped (confidence 1) [28884796]
Track 10 accurately ripped (confidence 1) [2E7F9CB1]
Track 11 accurately ripped (confidence 1) [F98C86D4]
Track 12 accurately ripped (confidence 1) [DE1A330D]
Track 13 accurately ripped (confidence 1) [3BF587EC]

All tracks accurately ripped

End of status report

cue
REM GENRE "Heavy Metal"
REM DATE 2002
REM DISCID B00CBF0D
REM COMMENT "ExactAudioCopy v1.0b1"
PERFORMER "Kraze"
TITLE "Devil In Disguise"
FILE "Kraze - Devil In Disguise.flac" WAVE
TRACK 01 AUDIO
TITLE "Devil in Disguise"
PERFORMER "Kraze"
FLAGS DCP
INDEX 01 00:00:00
TRACK 02 AUDIO
TITLE "M.A.D.D."
PERFORMER "Kraze"
FLAGS DCP
INDEX 00 03:26:64
INDEX 01 03:28:64
TRACK 03 AUDIO
TITLE "Death Row"
PERFORMER "Kraze"
FLAGS DCP
INDEX 00 07:50:32
INDEX 01 07:52:32
TRACK 04 AUDIO
TITLE "Solar Strike"
PERFORMER "Kraze"
FLAGS DCP
INDEX 00 12:37:42
INDEX 01 12:39:42
TRACK 05 AUDIO
TITLE "Onward to War"
PERFORMER "Kraze"
FLAGS DCP
INDEX 00 16:24:32
INDEX 01 16:26:32
TRACK 06 AUDIO
TITLE "On the Run"
PERFORMER "Kraze"
FLAGS DCP
INDEX 00 20:40:09
INDEX 01 20:42:09
TRACK 07 AUDIO
TITLE "Nuclear Nightmare"
PERFORMER "Kraze"
FLAGS DCP
INDEX 00 24:27:51
INDEX 01 24:29:51
TRACK 08 AUDIO
TITLE "Metally Insane"
PERFORMER "Kraze"
FLAGS DCP
INDEX 00 28:42:33
INDEX 01 28:44:33
TRACK 09 AUDIO
TITLE "Liar"
PERFORMER "Kraze"
FLAGS DCP
INDEX 00 32:14:13
INDEX 01 32:16:13
TRACK 10 AUDIO
TITLE "Self Infliction"
PERFORMER "Kraze"
FLAGS DCP
INDEX 00 37:01:34
INDEX 01 37:03:33
TRACK 11 AUDIO
TITLE "Land of Sorcery"
PERFORMER "Kraze"
FLAGS DCP
INDEX 00 40:50:44
INDEX 01 40:52:44
TRACK 12 AUDIO
TITLE "Stand, be tall"
PERFORMER "Kraze"
FLAGS DCP
INDEX 00 46:06:17
INDEX 01 46:08:17
TRACK 13 AUDIO
TITLE "Watch you burn"
PERFORMER "Kraze"
FLAGS DCP
INDEX 00 51:10:20
INDEX 01 51:12:20

spectrum
Image

_________________


Top
 Profile E-mail  
 
 
PostPosted: 16 Jun 2012 
***


Last edited by Вася_металлист_2012 on 14 Dec 2012, edited 1 time in total.

Top
  
 
 
PostPosted: 17 Jun 2012 
хард н хэвщик (support team)
User avatar
Joined: 02 Jun 2008
Posts: 16880
Lоcаtion: Н.Новгород
Age: 32
Name: Артем
Quote:
ps. Спектр уныл и беспощаден... :yyy:
нормальный для кассетных демок :pardon:


Top
 Profile  
 
 
PostPosted: 17 Jun 2012 
Хиппей (support team)
User avatar
Joined: 30 Jul 2007
Posts: 111167
Lоcаtion: Киев (Kyiv, UA)
Age: 45
Name: Andrey
Ну да, более-менее. Но ухо режет все же иногда :fingal:

_________________


Top
 Profile E-mail  
 
 
PostPosted: 17 Jun 2012 
Power Metal Maniac
User avatar
Joined: 09 Aug 2008
Posts: 6643
Lоcаtion: Москва
Age: 41
Name: Егор
:thanx:

_________________
Long Live Metal!


Top
 Profile  
 
 
PostPosted: 01 Jul 2012 
ТрэшЭрос
User avatar
Joined: 18 Jul 2011
Posts: 2302
Lоcаtion: Гулькевичи
Age: 44
Name: Александр
:thanx:

_________________
Thrash no trash!!!


Top
 Profile E-mail  
 
Display posts from previous:  Sort by  
Post new topic Reply to topic  [ 6 posts ] 

All times are UTC + 3 hours


Who is online

Users browsing this forum: No registered users and 1 guest


You cannot post new topics in this forum
You cannot reply to topics in this forum
You cannot edit your posts in this forum
You cannot delete your posts in this forum
You cannot post attachments in this forum

Search for:
Яндекс.Метрика
Powered by phpBB © 2000, 2002, 2005, 2007 phpBB Group