\m/ 80's metal \m/

Информационно-аналитический форум "80 см пыли" (In Search We Trust) "У нас никто никуда не спешит"
Me For You - http://me-4u.com
It is currently 15 Nov 2019

All times are UTC + 3 hours

Spoiler
Chat - temporary registration for foreign users (please leave your application here)







Post new topic Reply to topic  [ 6 posts ] 
Author Message
 
PostPosted: 26 May 2012 
Работнечег
User avatar
Joined: 28 Aug 2007
Posts: 6061
Lоcаtion: г. Москва
Age: 30
Name: Дима
Image

Band: Killers
Album: Contre Courant
Label: Brennus
Genre: Speed Metal
Country: France
Format: Flac + Log + Cue + Covers
Size: 370 Mb

Line-Up:
Bruno Dolheguy - Vocals, Guitar
Fabrice Arnouts - Guitars
Alain Garces - Bass
Patrick Soria - Drums


Tracklist:
1. Ennemis Publics n°1 04:35
2. Morituri Te Salutant 04:15
3. Ici Ou Ailleurs 04:05
4. Fatalité 06:15
5. Assez 05:05
6. Ethyliquement Vôtre 05:24
7. Contre-Courant 03:25
8. Anonyme Loque 05:20
9. Résistance 03:30
10. Accusé 04:10
11. Exécution 04:50

LOG
Exact Audio Copy V0.99 prebeta 5 from 4. May 2009

EAC extraction logfile from 13. May 2012, 17:22

Killers / Contre-Courant

Used drive : PIONEER DVD-RW DVR-116D Adapter: 0 ID: 0

Read mode : Secure
Utilize accurate stream : Yes
Defeat audio cache : Yes
Make use of C2 pointers : No

Read offset correction : 96
Overread into Lead-In and Lead-Out : No
Fill up missing offset samples with silence : Yes
Delete leading and trailing silent blocks : No
Null samples used in CRC calculations : Yes
Used interface : Native Win32 interface for Win NT & 2000

Used output format : User Defined Encoder
Selected bitrate : 32 kBit/s
Quality : High
Add ID3 tag : No
Command line compressor : C:\Program Files\Exact Audio Copy\Flac\flac.exe
Additional command line options : -6 -V %s


TOC of the extracted CD

Track | Start | Length | Start sector | End sector
---------------------------------------------------------
1 | 0:00.00 | 4:32.00 | 0 | 20399
2 | 4:32.00 | 4:15.36 | 20400 | 39560
3 | 8:47.36 | 4:00.01 | 39561 | 57561
4 | 12:47.37 | 6:01.00 | 57562 | 84636
5 | 18:48.37 | 5:08.74 | 84637 | 107810
6 | 23:57.36 | 4:26.00 | 107811 | 127760
7 | 28:23.36 | 3:27.73 | 127761 | 143358
8 | 31:51.34 | 5:31.22 | 143359 | 168205
9 | 37:22.56 | 3:27.37 | 168206 | 183767
10 | 40:50.18 | 4:20.38 | 183768 | 203305
11 | 45:10.56 | 4:51.11 | 203306 | 225141


Range status and errors

Selected range

Filename D:\Музыка\Lossless\Killers - Contre Courant (1995)\Killers - Contre-Courant.wav

Peak level 97.7 %
Range quality 100.0 %
Copy CRC 516CBB0C
Copy OK

No errors occurred


AccurateRip summary

Track 1 not present in database
Track 2 not present in database
Track 3 not present in database
Track 4 not present in database
Track 5 not present in database
Track 6 not present in database
Track 7 not present in database
Track 8 not present in database
Track 9 not present in database
Track 10 not present in database
Track 11 not present in database

None of the tracks are present in the AccurateRip database

End of status report

CUE
REM GENRE "Speed Metal"
REM DATE 1995
REM DISCID 8B0BB90B
REM COMMENT "ExactAudioCopy v0.99pb5"
PERFORMER "Killers"
TITLE "Contre-Courant"
FILE "Killers - Contre-Courant.flac" WAVE
TRACK 01 AUDIO
TITLE "Ennemis Publics №1"
PERFORMER "Killers"
FLAGS DCP
INDEX 01 00:00:00
TRACK 02 AUDIO
TITLE "Morituri Te Salutant"
PERFORMER "Killers"
FLAGS DCP
INDEX 01 04:32:00
TRACK 03 AUDIO
TITLE "Ici Ou Ailleurs"
PERFORMER "Killers"
FLAGS DCP
INDEX 01 08:47:36
TRACK 04 AUDIO
TITLE "Fatalite"
PERFORMER "Killers"
FLAGS DCP
INDEX 01 12:47:37
TRACK 05 AUDIO
TITLE "Assez"
PERFORMER "Killers"
FLAGS DCP
INDEX 01 18:48:37
TRACK 06 AUDIO
TITLE "Ethyliquement Votre"
PERFORMER "Killers"
FLAGS DCP
INDEX 01 23:57:36
TRACK 07 AUDIO
TITLE "Contre-Courant"
PERFORMER "Killers"
FLAGS DCP
INDEX 01 28:23:36
TRACK 08 AUDIO
TITLE "Anonyme Loque"
PERFORMER "Killers"
FLAGS DCP
INDEX 01 31:51:34
TRACK 09 AUDIO
TITLE "Resistance"
PERFORMER "Killers"
FLAGS DCP
INDEX 01 37:22:56
TRACK 10 AUDIO
TITLE "Accuse"
PERFORMER "Killers"
FLAGS DCP
INDEX 01 40:50:18
TRACK 11 AUDIO
TITLE "Execution"
PERFORMER "Killers"
FLAGS DCP
INDEX 01 45:10:56

Spectrum
Image


Narod.Ru


Top
 Profile E-mail  
 
 
PostPosted: 27 May 2012 
Хиппей (support team)
User avatar
Joined: 30 Jul 2007
Posts: 115539
Lоcаtion: Киев (Kyiv, UA)
Age: 46
Name: Andrey
:thanx:

_________________


Top
 Profile E-mail  
 
 
PostPosted: 27 May 2012 
Прокъмитолист
User avatar
Joined: 12 Aug 2007
Posts: 6636
Lоcаtion: Санктъ-Петербуркъ
Age: 52
Name: Олекъ
спасибо, Дим :thanx:

_________________
прокъметол - это музыко, от которово есть прок (ы)


Top
 Profile  
 
 
PostPosted: 27 May 2012 
Генеральный thrasher
User avatar
Joined: 03 Oct 2008
Posts: 3742
Lоcаtion: Ханты-Мансийский АО
Age: 44
Name: Сергей
Дима,спасибо! :losik: :true:


Top
 Profile  
 
 
PostPosted: 28 May 2012 
Пионэръ
User avatar
Joined: 02 Jul 2010
Posts: 45
Lоcаtion: Сочи
Age: 47
Name: Борис
:thanx: :thanx:


Top
 Profile E-mail  
 
 
PostPosted: 12 Jun 2012 
Power Metal Maniac
User avatar
Joined: 09 Aug 2008
Posts: 6958
Lоcаtion: Москва
Age: 41
Name: Егор
:thanx:

_________________
Long Live Metal!


Top
 Profile  
 
Display posts from previous:  Sort by  
Post new topic Reply to topic  [ 6 posts ] 

All times are UTC + 3 hours


Who is online

Users browsing this forum: No registered users and 1 guest


You cannot post new topics in this forum
You cannot reply to topics in this forum
You cannot edit your posts in this forum
You cannot delete your posts in this forum
You cannot post attachments in this forum

Search for:
Яндекс.Метрика
Powered by phpBB © 2000, 2002, 2005, 2007 phpBB Group