\m/ 80's metal \m/

Информационно-аналитический форум "80 см пыли" (In Search We Trust) "У нас никто никуда не спешит"
Me For You - http://me-4u.com
It is currently 27 Mar 2019

All times are UTC + 3 hours

Spoiler
Chat - temporary registration for foreign users (please leave your application here)







Post new topic Reply to topic  [ 3 posts ] 
Author Message
 
PostPosted: 31 Mar 2012 
А может смените мне статус?..
User avatar
Joined: 22 Nov 2008
Posts: 967
Lоcаtion: Schelcovo,Russia
Age: 47
Name: Сергей
Image
Kurban - Insanlar (2005)
Track Listing:
1. A Bir
2. Suç Bende
3. Yine
4. Uyut Beni
5. Cennet
6. Zor Güzel
7. A
8. Yok
9. İnsanlar
10. Sus
11. Sakın Söyleme
12. Ben
13. Ağla
14. Göç
Lossless Size:422.2Mb
Mp3 Size:138.8Mb
Турецкий метал...
Начинается очень эмтивишно,но к завершению альбома видно что музыканты способны играть более интересную музыку.
Если все таки неформат,сносите его на фиг :esel: !!!

phpBB [youtube]


log
EAC extraction logfile from 31. March 2012, 12:12 for CD
Kurban / Insanlar

Used drive : HL-DT-STDVDRAM GT32N Adapter: 0 ID: 1
Read mode : Secure with NO C2, accurate stream, disable cache
Read offset correction : 667
Overread into Lead-In and Lead-Out : No

Used output format : Internal WAV Routines
44.100 Hz; 16 Bit; Stereo

Other options :
Fill up missing offset samples with silence : Yes
Delete leading and trailing silent blocks : No
Installed external ASPI interface


Range status and errors
Selected range
Filename C:\Users\Сергей\Music\Моя музыка\Kurban - Insanlar.wav

Peak level 98.6 %
Range quality 100.0 %
CRC 026CB17A
Copy OK

No errors occured

End of status report

cue
REM GENRE "Hard Rock"
REM DATE 2005
REM DISCID DC0CF30E
REM COMMENT "ExactAudioCopy v0.95b4"
PERFORMER "Kurban"
TITLE "Insanlar"
FILE "Kurban - Insanlar.wav" WAVE
TRACK 01 AUDIO
TITLE "A Bir (Intro)"
PERFORMER "Kurban"
INDEX 01 00:00:00
TRACK 02 AUDIO
TITLE "Suc Bende"
PERFORMER "Kurban"
INDEX 01 00:44:33
TRACK 03 AUDIO
TITLE "Yine"
PERFORMER "Kurban"
INDEX 00 03:43:29
INDEX 01 03:45:29
TRACK 04 AUDIO
TITLE "Uyut Beni"
PERFORMER "Kurban"
INDEX 00 08:05:48
INDEX 01 08:07:00
TRACK 05 AUDIO
TITLE "Cennet"
PERFORMER "Kurban"
INDEX 00 13:04:73
INDEX 01 13:06:34
TRACK 06 AUDIO
TITLE "Zor Guzel"
PERFORMER "Kurban"
INDEX 00 17:24:56
INDEX 01 17:26:69
TRACK 07 AUDIO
TITLE "A"
PERFORMER "Kurban"
INDEX 00 21:36:33
INDEX 01 21:38:66
TRACK 08 AUDIO
TITLE "Ok"
PERFORMER "Kurban"
INDEX 00 27:53:48
INDEX 01 27:55:42
TRACK 09 AUDIO
TITLE "Insanlar"
PERFORMER "Kurban"
INDEX 00 31:14:50
INDEX 01 31:16:42
TRACK 10 AUDIO
TITLE "Sus"
PERFORMER "Kurban"
INDEX 00 36:22:38
INDEX 01 36:24:15
TRACK 11 AUDIO
TITLE "Sakin Soyleme"
PERFORMER "Kurban"
INDEX 01 37:49:37
TRACK 12 AUDIO
TITLE "Ben"
PERFORMER "Kurban"
INDEX 00 43:56:08
INDEX 01 43:57:60
TRACK 13 AUDIO
TITLE "Agla"
PERFORMER "Kurban"
INDEX 00 48:11:65
INDEX 01 48:13:36
TRACK 14 AUDIO
TITLE "Goc"
PERFORMER "Kurban"
INDEX 00 52:35:49
INDEX 01 52:37:33

spectrum
Image


Top
 Profile  
 
 
PostPosted: 03 Apr 2012 
Хиппей (support team)
User avatar
Joined: 30 Jul 2007
Posts: 111169
Lоcаtion: Киев (Kyiv, UA)
Age: 45
Name: Andrey
:thanx:

mirror: Speedy l Narod

Проверю как-то...

_________________


Top
 Profile E-mail  
 
 
PostPosted: 03 Apr 2012 
Хиппей (support team)
User avatar
Joined: 30 Jul 2007
Posts: 111169
Lоcаtion: Киев (Kyiv, UA)
Age: 45
Name: Andrey
MTV-metal очень удачное определение :true:
Ибо хрен поймешь, как этот стиль обозвать. Таркан утяжелённый, шоле :vic:
Самое смешное, что альбом не напрягает и слушается весьма приятно. Тяжеловатая музыка (иногда за гранью хэви), с замесом альтернативы, фанка и восточных (турецких) мелодий.

4+/10

_________________


Top
 Profile E-mail  
 
Display posts from previous:  Sort by  
Post new topic Reply to topic  [ 3 posts ] 

All times are UTC + 3 hours


Who is online

Users browsing this forum: No registered users and 1 guest


You cannot post new topics in this forum
You cannot reply to topics in this forum
You cannot edit your posts in this forum
You cannot delete your posts in this forum
You cannot post attachments in this forum

Search for:
Яндекс.Метрика
Powered by phpBB © 2000, 2002, 2005, 2007 phpBB Group