\m/ 80's metal \m/

Информационно-аналитический форум "80 см пыли" (In Search We Trust) "У нас никто никуда не спешит"
Me For You - http://me-4u.com
It is currently 17 Oct 2019

All times are UTC + 3 hours

Spoiler
Chat - temporary registration for foreign users (please leave your application here)







Post new topic Reply to topic  [ 9 posts ] 
Author Message
 
PostPosted: 17 Mar 2012 
Я набрал 1000 сообщений!
User avatar
Joined: 02 Feb 2009
Posts: 1000
Lоcаtion: из Тулы
Age: 45
Name: Максим
Image
Год: 2007
Стиль: Хэви....сами решайте
Страна: France
Формат: Flac ( image + cue ) , log , all scans(ну очень много страничек)
Размер: 620 mb (5%)

Трэклист:
1. L'enfer du décor 01:11
2. Deux bastos dans le cigare 03:05
3. Combien de fois ? 03:11
4. Comprendre 03:39
5. Seul dans mon coin 03:42
6. No future 02:04
7. Faire du métal 03:08
8. Malgré tout 02:55
9. Trop tard 02:50
10. Absent 03:05
11. Nouveau monde 02:21
12. Un peu de répit 02:43
13. Habemus Metal 02:21
14. Overkillers 03:15
15. Pas de pitié 04:34
16. La ronde des couillons 02:47
17. Trajectoires 04:05
18. http://Www.misère 03:56
19. Voyeur 03:03
20. S.O.S. 02:31
21. Latitude ouest 04:17
22. Tais-toi 04:19
01:09:02

http://files.mail.ru/1HYX2X

Четырнадцатая песня про меня и про то что таких как я много -- гы


log
Exact Audio Copy V0.99 prebeta 5 from 4. May 2009

EAC extraction logfile from 17. March 2012, 20:43

Killers / A L'ombre Des Vautours

Used drive : TSSTcorpCDDVDW SH-S203D Adapter: 1 ID: 1

Read mode : Secure
Utilize accurate stream : Yes
Defeat audio cache : Yes
Make use of C2 pointers : No

Read offset correction : 6
Overread into Lead-In and Lead-Out : No
Fill up missing offset samples with silence : Yes
Delete leading and trailing silent blocks : No
Null samples used in CRC calculations : Yes
Used interface : Installed external ASPI interface

Used output format : Internal WAV Routines
Sample format : 44.100 Hz; 16 Bit; Stereo


TOC of the extracted CD

Track | Start | Length | Start sector | End sector
---------------------------------------------------------
1 | 0:00.00 | 1:11.24 | 0 | 5348
2 | 1:11.24 | 3:05.08 | 5349 | 19231
3 | 4:16.32 | 3:11.69 | 19232 | 33625
4 | 7:28.26 | 3:39.42 | 33626 | 50092
5 | 11:07.68 | 3:42.52 | 50093 | 66794
6 | 14:50.45 | 2:04.59 | 66795 | 76153
7 | 16:55.29 | 3:08.13 | 76154 | 90266
8 | 20:03.42 | 2:55.69 | 90267 | 103460
9 | 22:59.36 | 2:50.04 | 103461 | 116214
10 | 25:49.40 | 3:05.72 | 116215 | 130161
11 | 28:55.37 | 2:21.33 | 130162 | 140769
12 | 31:16.70 | 2:43.49 | 140770 | 153043
13 | 34:00.44 | 2:21.26 | 153044 | 163644
14 | 36:21.70 | 3:15.29 | 163645 | 178298
15 | 39:37.24 | 4:34.02 | 178299 | 198850
16 | 44:11.26 | 2:47.25 | 198851 | 211400
17 | 46:58.51 | 4:05.11 | 211401 | 229786
18 | 51:03.62 | 3:56.33 | 229787 | 247519
19 | 55:00.20 | 3:03.25 | 247520 | 261269
20 | 58:03.45 | 2:31.49 | 261270 | 272643
21 | 60:35.19 | 4:17.61 | 272644 | 291979
22 | 64:53.05 | 4:20.00 | 291980 | 311479


Range status and errors

Selected range

Filename B:\МУЗЫКА\LOSSLESS\МОИ РИПЫ\CD\Killers - A L'ombre Des Vautours.wav

Peak level 95.9 %
Range quality 100.0 %
Copy CRC 6FDACC0A
Copy OK

No errors occurred


AccurateRip summary

Track 1 not present in database
Track 2 not present in database
Track 3 not present in database
Track 4 not present in database
Track 5 not present in database
Track 6 not present in database
Track 7 not present in database
Track 8 not present in database
Track 9 not present in database
Track 10 not present in database
Track 11 not present in database
Track 12 not present in database
Track 13 not present in database
Track 14 not present in database
Track 15 not present in database
Track 16 not present in database
Track 17 not present in database
Track 18 not present in database
Track 19 not present in database
Track 20 not present in database
Track 21 not present in database
Track 22 not present in database

None of the tracks are present in the AccurateRip database

End of status report

cue
REM GENRE "Heavy Metal"
REM DATE 2007
REM SOURCE "KMA"
REM DISCID 3E103916
REM COMMENT "ExactAudioCopy v0.99pb5"
PERFORMER "Killers"
TITLE "A L'ombre Des Vautours"
FILE "Killers - A L'ombre Des Vautours.flac" WAVE
TRACK 01 AUDIO
TITLE "L'Enfer Du Dйcor"
PERFORMER "Killers"
FLAGS DCP
INDEX 01 00:00:00
TRACK 02 AUDIO
TITLE "Deux Bastos Dans Le Cigare"
PERFORMER "Killers"
FLAGS DCP
INDEX 01 01:11:24
TRACK 03 AUDIO
TITLE "Combien De Fois ?"
PERFORMER "Killers"
FLAGS DCP
INDEX 01 04:16:32
TRACK 04 AUDIO
TITLE "Comprendre"
PERFORMER "Killers"
FLAGS DCP
INDEX 01 07:28:26
TRACK 05 AUDIO
TITLE "Seul Dans Mon Coin"
PERFORMER "Killers"
FLAGS DCP
INDEX 01 11:07:68
TRACK 06 AUDIO
TITLE "No Future"
PERFORMER "Killers"
FLAGS DCP
INDEX 01 14:50:45
TRACK 07 AUDIO
TITLE "Faire Du Metal"
PERFORMER "Killers"
FLAGS DCP
INDEX 01 16:55:29
TRACK 08 AUDIO
TITLE "Malgrй Tout"
PERFORMER "Killers"
FLAGS DCP
INDEX 01 20:03:42
TRACK 09 AUDIO
TITLE "Trop Tard"
PERFORMER "Killers"
FLAGS DCP
INDEX 01 22:59:36
TRACK 10 AUDIO
TITLE "Absent"
PERFORMER "Killers"
FLAGS DCP
INDEX 01 25:49:40
TRACK 11 AUDIO
TITLE "Nouveau Monde"
PERFORMER "Killers"
FLAGS DCP
INDEX 01 28:55:37
TRACK 12 AUDIO
TITLE "Un Peu De Rйpit"
PERFORMER "Killers"
FLAGS DCP
INDEX 01 31:16:70
TRACK 13 AUDIO
TITLE "Habemus Mйtal"
PERFORMER "Killers"
FLAGS DCP
INDEX 01 34:00:44
TRACK 14 AUDIO
TITLE "Overkillers"
PERFORMER "Killers"
FLAGS DCP
INDEX 01 36:21:70
TRACK 15 AUDIO
TITLE "Pas De Pitiй"
PERFORMER "Killers"
FLAGS DCP
INDEX 01 39:37:24
TRACK 16 AUDIO
TITLE "La Ronde Des Couillons"
PERFORMER "Killers"
FLAGS DCP
INDEX 01 44:11:26
TRACK 17 AUDIO
TITLE "Trajectoires"
PERFORMER "Killers"
FLAGS DCP
INDEX 01 46:58:51
TRACK 18 AUDIO
TITLE "www.Misиre"
PERFORMER "Killers"
FLAGS DCP
INDEX 01 51:03:62
TRACK 19 AUDIO
TITLE "Voyeur"
PERFORMER "Killers"
FLAGS DCP
INDEX 01 55:00:20
TRACK 20 AUDIO
TITLE "S.O.S"
PERFORMER "Killers"
FLAGS DCP
INDEX 01 58:03:45
TRACK 21 AUDIO
TITLE "Latitude Ouest"
PERFORMER "Killers"
FLAGS DCP
INDEX 01 60:35:19
TRACK 22 AUDIO
TITLE "Tais-Toi"
PERFORMER "Killers"
FLAGS DCP
INDEX 01 64:53:05

spectrum
Image

_________________
КМА


Top
 Profile  
 
 
PostPosted: 17 Mar 2012 
Прокъмитолист
User avatar
Joined: 12 Aug 2007
Posts: 6623
Lоcаtion: Санктъ-Петербуркъ
Age: 51
Name: Олекъ
был у меня, Макс, твой старый потрэковый рип, так что обновлю пожалуй. спасибо (особенно за многа страничег)! :true:

_________________
прокъметол - это музыко, от которово есть прок (ы)


Top
 Profile  
 
 
PostPosted: 17 Mar 2012 
Я набрал 1000 сообщений!
User avatar
Joined: 02 Feb 2009
Posts: 1000
Lоcаtion: из Тулы
Age: 45
Name: Максим
spiralarch wrote:
спасибо (особенно за многа страничег)! :true:

блин , Олег , знал бы ты как их долго и трудно сканировать , правда с вискарем ... неделя болезни и таблеток прошла , снимаем стресс

_________________
КМА


Top
 Profile  
 
 
PostPosted: 17 Mar 2012 
Прокъмитолист
User avatar
Joined: 12 Aug 2007
Posts: 6623
Lоcаtion: Санктъ-Петербуркъ
Age: 51
Name: Олекъ
overkiller wrote:
знал бы ты

а то я не знаю, да? :crazy: это ж самая геморная часть релиза. если б не сканы, которые отнимают у меня кучу времени (я ведь их еще редактирую всегда - выравниваю, чищу, обрезаю), я бы мог в несколько раз чаще новые релизы постить.

ну, с выздоровлением :drink:

_________________
прокъметол - это музыко, от которово есть прок (ы)


Top
 Profile  
 
 
PostPosted: 17 Mar 2012 
Я набрал 1000 сообщений!
User avatar
Joined: 02 Feb 2009
Posts: 1000
Lоcаtion: из Тулы
Age: 45
Name: Максим
ща еще один забабашу

_________________
КМА


Top
 Profile  
 
 
PostPosted: 17 Mar 2012 
Хиппей (support team)
User avatar
Joined: 30 Jul 2007
Posts: 114883
Lоcаtion: Киев (Kyiv, UA)
Age: 46
Name: Andrey
Макс, спасибо :true: :thanx:
Выздоравливай, а то весна ж уже :siski: :garmo:

mirror: Speedy l Narod

_________________


Top
 Profile E-mail  
 
 
PostPosted: 18 Mar 2012 
Я набрал 1000 сообщений!
User avatar
Joined: 02 Feb 2009
Posts: 1000
Lоcаtion: из Тулы
Age: 45
Name: Максим
так выздоровел наверное , если вчера бухал , конечно связи может и не быть в этих вопросах....но я как бы увязал

_________________
КМА


Top
 Profile  
 
 
PostPosted: 18 Mar 2012 
А может смените мне статус?..
User avatar
Joined: 24 Dec 2008
Posts: 648
Age: 45
Name: Дмитрий
Спасибо!


Top
 Profile  
 
 
PostPosted: 18 Mar 2012 
Генеральный thrasher
User avatar
Joined: 03 Oct 2008
Posts: 3738
Lоcаtion: Ханты-Мансийский АО
Age: 44
Name: Сергей
Спасибо,Макс!Этот тоже беру... :true:


Top
 Profile  
 
Display posts from previous:  Sort by  
Post new topic Reply to topic  [ 9 posts ] 

All times are UTC + 3 hours


Who is online

Users browsing this forum: No registered users and 1 guest


You cannot post new topics in this forum
You cannot reply to topics in this forum
You cannot edit your posts in this forum
You cannot delete your posts in this forum
You cannot post attachments in this forum

Search for:
Яндекс.Метрика
Powered by phpBB © 2000, 2002, 2005, 2007 phpBB Group