\m/ 80's metal \m/

Информационно-аналитический форум "80 см пыли" (In Search We Trust) "У нас никто никуда не спешит"
Me For You - http://me-4u.com
It is currently 16 Sep 2019

All times are UTC + 3 hours

Spoiler
Chat - temporary registration for foreign users (please leave your application here)







Post new topic Reply to topic  [ 22 posts ]  Go to page Previous  1, 2
Author Message
 
PostPosted: 13 Sep 2011 
парень в очёчкXаX!
User avatar
Joined: 15 Aug 2007
Posts: 2353
Lоcаtion: UK'раина, г. ЛондАн Би-Би-Си
Age: 48
Name: Сергей
Pay It In Metal <--он же--> Pain Killer
Не смог, не удержалсИ отказать себе в удовольствии "отриППитЪ"
энту MEGA RARE мада-фака хренЪ!:) от всё тех-же Zлостных неплатильщиков налоГГоф :)
лучшего звука в цифровом формате в природе НЕ СУЩЕСТВУЕТ!
обладателям АНАЛОГа - мой RESPECT!!!... без комментариев

---------------------------->в общем, для коллекционеров и тоЧЧка!<----------------------------

Image

Image

Страна: Switzerland
Стиль: Hard Rock
Формат: WAV+CUE+LOG
Размер: 266mb+HQ scans (+Repair info)
Источник: My CDDA collection

Line-up:
Chris Von Rohr - lead vocals/percussion
Fernando Von Arb - guitars/bass
Tommy Kiefer - guitars
Jüerg Naegeli - bass/keyboards
Freddy Steady - drums/percussion

Tracklisting:
1. Killer
2. Werewolf
3. Rock Ladies
4. Bad Love
5. Get Out of My Mind
6. Rock Me, Rock You
7. Deadline
8. Susie
9. Pay It
10. Bye Bye Baby

Total playing time: 35:44

Produced by Harry Sprenger
Engineered by Mick Glossop
Recorded and mixed at The Manor Studios, Oxford, England 6/78

1978 Polygram Records AG CH-8952 Schlieren/Switzerland

multiUp+HQ Scans
narod+HQ Scans

Image

log
Exact Audio Copy V1.0 beta 1 from 15. November 2010

Отчёт EAC об извлечении, выполненном 13. сентября 2011, 14:03

KROKUS / Pay It Metal

Дисковод: TEAC CD-W524E Adapter: 1 ID: 0

Режим чтения : Достоверность
Использование точного потока : Да
Отключение кэша аудио : Да
Использование указателей C2 : Нет

Коррекция смещения при чтении : 686
Способность читать области Lead-in и Lead-out : Нет
Заполнение пропущенных сэмплов тишиной : Да
Удаление блоков с тишиной в начале и конце : Нет
При вычислениях CRC использовались нулевые сэмплы : Да
Интерфейс : Встроенный Win32-интерфейс для Win NT/2000

Выходной формат : Внутренние WAV-операции
Формат сэмплов : 44.100 Гц; 16 бит; стерео


TOC извлечённого CD

Трек | Старт | Длительность | Начальный сектор | Конечный сектор
---------------------------------------------------------------------
1 | 0:00.00 | 4:04.02 | 0 | 18301
2 | 4:04.02 | 3:25.11 | 18302 | 33687
3 | 7:29.13 | 3:06.70 | 33688 | 47707
4 | 10:36.08 | 4:52.09 | 47708 | 69616
5 | 15:28.17 | 3:44.70 | 69617 | 86486
6 | 19:13.12 | 3:24.74 | 86487 | 101860
7 | 22:38.11 | 2:06.50 | 101861 | 111360
8 | 24:44.61 | 3:08.33 | 111361 | 125493
9 | 27:53.19 | 3:12.51 | 125494 | 139944
10 | 31:05.70 | 4:36.70 | 139945 | 160714


Характеристики диапазона извлечения и сообщения об ошибках

Выбранный диапазон

Имя файла D:\Music\Сегодня+\CoverZ\UPLOADz\Krok-78\KROKUS - Pay It Metal.wav

Пиковый уровень 100.0 %
Скорость извлечения 0.8 X
Качество диапазона 100.0 %
CRC копии 74D3F461
Копирование... OK

Ошибок не произошло


AccurateRip: сводка

Трек 1 отсутствует в базе данных
Трек 2 отсутствует в базе данных
Трек 3 отсутствует в базе данных
Трек 4 отсутствует в базе данных
Трек 5 отсутствует в базе данных
Трек 6 отсутствует в базе данных
Трек 7 отсутствует в базе данных
Трек 8 отсутствует в базе данных
Трек 9 отсутствует в базе данных
Трек 10 отсутствует в базе данных

Ни одного трека нет в базе AccurateRip

Конец отчёта

cue
REM GENRE "Hard Rock"
REM DATE 1978
REM DISCID 87085E0A
REM COMMENT "ExactAudioCopy v1.0b1"
PERFORMER "KROKUS"
TITLE "Pay It Metal"
FILE "KROKUS - Pay It Metal.wav" WAVE
TRACK 01 AUDIO
TITLE "Killer"
PERFORMER "KROKUS"
FLAGS DCP
INDEX 01 00:00:00
TRACK 02 AUDIO
TITLE "Werewolf"
PERFORMER "KROKUS"
FLAGS DCP
INDEX 00 04:04:00
INDEX 01 04:04:02
TRACK 03 AUDIO
TITLE "Rock Ladies"
PERFORMER "KROKUS"
FLAGS DCP
INDEX 01 07:29:13
TRACK 04 AUDIO
TITLE "Bad Love"
PERFORMER "KROKUS"
FLAGS DCP
INDEX 01 10:36:08
TRACK 05 AUDIO
TITLE "Get Out of My Mind"
PERFORMER "KROKUS"
FLAGS DCP
INDEX 01 15:28:17
TRACK 06 AUDIO
TITLE "Rock Me, Rock You"
PERFORMER "KROKUS"
FLAGS DCP
INDEX 01 19:13:12
TRACK 07 AUDIO
TITLE "Deadline"
PERFORMER "KROKUS"
FLAGS DCP
INDEX 01 22:38:11
TRACK 08 AUDIO
TITLE "Susie"
PERFORMER "KROKUS"
FLAGS DCP
INDEX 01 24:44:61
TRACK 09 AUDIO
TITLE "Pay It"
PERFORMER "KROKUS"
FLAGS DCP
INDEX 01 27:53:19
TRACK 10 AUDIO
TITLE "Bye Bye Baby"
PERFORMER "KROKUS"
FLAGS DCP
INDEX 01 31:05:70

spectrum
Image


Top
 Profile  
 
 
PostPosted: 31 Mar 2013 
5-speed satisfactor
User avatar
Joined: 16 Feb 2009
Posts: 3760
Lоcаtion: New York, USA
Age: 41
Name: Leonid
Ой не помню я. Ну должен быть такой же как и последний Крокус с Ортофоном. Примерно. CD rip был меньше весом.

_________________
Death rules! Metal to all who oppose!


Top
 Profile  
 
 
PostPosted: 31 Mar 2013 
Хиппей (support team)
User avatar
Joined: 30 Jul 2007
Posts: 114348
Lоcаtion: Киев (Kyiv, UA)
Age: 46
Name: Andrey
Ок, разберёмся со временем чей то рип был =) Ну и Серёгины ссылки восстановим :dance:

Я тут у себя уже 7 версий рипа этого альбома вижу на винте и серваке :crazy:

_________________


Top
 Profile E-mail  
 
Display posts from previous:  Sort by  
Post new topic Reply to topic  [ 22 posts ]  Go to page Previous  1, 2

All times are UTC + 3 hours


Who is online

Users browsing this forum: No registered users and 1 guest


You cannot post new topics in this forum
You cannot reply to topics in this forum
You cannot edit your posts in this forum
You cannot delete your posts in this forum
You cannot post attachments in this forum

Search for:
Яндекс.Метрика
Powered by phpBB © 2000, 2002, 2005, 2007 phpBB Group