\m/ 80's metal \m/

Информационно-аналитический форум "80 см пыли" (In Search We Trust) "У нас никто никуда не спешит"
Me For You - http://me-4u.com
It is currently 24 Mar 2019

All times are UTC + 3 hours

Spoiler
Chat - temporary registration for foreign users (please leave your application here)







Post new topic Reply to topic  [ 9 posts ] 
Author Message
 
PostPosted: 13 Sep 2011 
Зарегился вот...
Joined: 13 Sep 2011
Posts: 3
Lоcаtion: U.S.A.
Name: Steven Cannon
Looking for this album Knightmare "Evil Dreams." Here's the link:

http://www.metal-archives.com/albums/Kn ... ams/246715


Top
 Profile E-mail  
 
 
PostPosted: 13 Sep 2011 
Хиппей (support team)
User avatar
Joined: 30 Jul 2007
Posts: 111129
Lоcаtion: Киев (Kyiv, UA)
Age: 45
Name: Andrey
! ЗАМЕЧАНИЕ МОДЕРАТОРА/MODERATOR NOTE
Steven, edit request according to the rules :arrow: viewforum.php?f=3

_________________


Top
 Profile E-mail  
 
 
PostPosted: 15 Sep 2011 
Труъ
User avatar
Joined: 18 Nov 2009
Posts: 126
Lоcаtion: Hellville
Age: 43
Name: Mapeк
Must be easier to find in USA, I tried but not too hard since its only ok punky metal


Top
 Profile E-mail  
 
 
PostPosted: 17 Aug 2013 
Персональный статус
User avatar
Joined: 06 Apr 2013
Posts: 466
Lоcаtion: Russia, Orel
Age: 29
Name: Сергей
http://rutracker.org/forum/viewtopic.php?t=4355230


Top
 Profile E-mail  
 
 
PostPosted: 18 Aug 2013 
Хиппей (support team)
User avatar
Joined: 30 Jul 2007
Posts: 111129
Lоcаtion: Киев (Kyiv, UA)
Age: 45
Name: Andrey
:dance:

_________________


Top
 Profile E-mail  
 
 
PostPosted: 26 Aug 2013 
Хиппей (support team)
User avatar
Joined: 30 Jul 2007
Posts: 111129
Lоcаtion: Киев (Kyiv, UA)
Age: 45
Name: Andrey
В процессе заливки, а то так запрос и зависнет :fingal:

_________________


Top
 Profile E-mail  
 
 
PostPosted: 26 Aug 2013 
Хиппей (support team)
User avatar
Joined: 30 Jul 2007
Posts: 111129
Lоcаtion: Киев (Kyiv, UA)
Age: 45
Name: Andrey
Knightmare - 1989 - Evil Dreams (vinyl rip 24/192) [flac]

ImageImage
ImageImage

Line-up:
Al Mead - bass, lead vocals
Steve Piazeczny - drums
Tim Koukos - guitar, vocals

    1. Better Off Dead - 03:10
    2. Evil Dreams - 03:25
    3. Fearer of Death - 06:47
    4. Power in My Soul - 03:47
    5. Domination - 03:40
    6. Begin Again - 05:07
    7. Down to Stay - 03:25
    8. Battle from Within - 03:43
    9. Darkness - 04:27
    10. Mentally Ill - 03:20

    TPT: 40:51

mirror: F-Bit l eDisk l Narod

Фигня какая-то :dance:

cue
TITLE "Evil dreams"
PERFORMER "Knightmare"
FILE "A side.Flac" WAVE
TRACK 01 AUDIO
TITLE "Better off dead"
PERFORMER "Knightmare"
INDEX 01 00:00:00
TRACK 02 AUDIO
TITLE "Evil dreams"
PERFORMER "Knightmare"
INDEX 01 03:08:72
TRACK 03 AUDIO
TITLE "Fear of death"
PERFORMER "Knightmare"
INDEX 01 06:34:47
TRACK 04 AUDIO
TITLE "Power in my soul"
PERFORMER "Knightmare"
INDEX 01 13:22:50
TRACK 05 AUDIO
TITLE "Domination"
PERFORMER "Knightmare"
INDEX 01 17:11:20
FILE "B side.Flac" WAVE
TRACK 06 AUDIO
TITLE "Begin again"
PERFORMER "Knightmare"
INDEX 01 00:00:00
TRACK 07 AUDIO
TITLE "Down to stay"
PERFORMER "Knightmare"
INDEX 01 05:07:13
TRACK 08 AUDIO
TITLE "Battle from within"
PERFORMER "Knightmare"
INDEX 01 08:34:01
TRACK 09 AUDIO
TITLE "Darkness"
PERFORMER "Knightmare"
INDEX 01 12:18:71
TRACK 10 AUDIO
TITLE "Mentally ill"
PERFORMER "Knightmare"
INDEX 01 16:47:19

_________________


Top
 Profile E-mail  
 
 
PostPosted: 26 Aug 2013 
ТрэшЭрос
User avatar
Joined: 18 Jul 2011
Posts: 2302
Lоcаtion: Гулькевичи
Age: 44
Name: Александр
Scatterbrain wrote:
Фигня какая-то

Это genre такой или заключение эксперта? :umnik:

_________________
Thrash no trash!!!


Top
 Profile E-mail  
 
 
PostPosted: 26 Aug 2013 
Хиппей (support team)
User avatar
Joined: 30 Jul 2007
Posts: 111129
Lоcаtion: Киев (Kyiv, UA)
Age: 45
Name: Andrey
Жанр определить сложновато... :umnik:
Это метол. Даже иногда Heavy Metal, но... с какими-то странными примесями медленного хардкора, кроссовера и жутким (а может просто панковским) качеством записи :scratch:
Вроде бы альбом и слушать можно, о как-то натужно всё восприимается. Понравилось всего два чисто хардкоровых трэка.
Ну как понравились... На затонувшей барже и чайная ложка считается веслом :esel:

_________________


Top
 Profile E-mail  
 
Display posts from previous:  Sort by  
Post new topic Reply to topic  [ 9 posts ] 

All times are UTC + 3 hours


Who is online

Users browsing this forum: No registered users and 1 guest


You cannot post new topics in this forum
You cannot reply to topics in this forum
You cannot edit your posts in this forum
You cannot delete your posts in this forum
You cannot post attachments in this forum

Search for:
Яндекс.Метрика
Powered by phpBB © 2000, 2002, 2005, 2007 phpBB Group