\m/ 80's metal \m/

Информационно-аналитический форум "80 см пыли" (In Search We Trust) "У нас никто никуда не спешит"
Железнодорожная биржа - RailAgent
It is currently 14 Dec 2017

All times are UTC + 3 hours

Spoiler
Chat - temporary registration for foreign users (please leave your application here)







Post new topic Reply to topic  [ 13 posts ] 
Author Message
 
PostPosted: 09 Feb 2011 
Персональный статус
Joined: 11 Sep 2010
Posts: 429
Lоcаtion: Тверь
Age: 44
Name: Сергей
Jimmy Ryser-Manana Mentality(1994)

http://www.heavyharmonies.com/cgi-bin/b ... ndNum=5421

Его первый альбом очень даже ничего. Хотелось бы и этот заценить. Ни у кого нету ?


Top
 Profile E-mail  
 
 
PostPosted: 09 Feb 2011 
хард н хэвщик (support team)
User avatar
Joined: 02 Jun 2008
Posts: 16879
Lоcаtion: Н.Новгород
Age: 30
Name: Артем
Сергей, дополни свой запрос трек-листом и (желательно) картинкой :fingal:


Top
 Profile  
 
 
PostPosted: 09 Feb 2011 
Персональный статус
Joined: 11 Sep 2010
Posts: 429
Lоcаtion: Тверь
Age: 44
Name: Сергей
Jimmy Ryser-Manana Mentality(1994)
1. Wandering Mind 4:18
2. Down Across the Water 4:21
3. Shine, Shine 4:36
4. I Believe You 3:59
5. Look At the Paper 4:47
6. Autumn 4:04
7. Take You Down 4:06
8. Packed Up Every Piece 4:32
9. Running Away 6:39
10. The Big Tree 3:41


Top
 Profile E-mail  
 
 
PostPosted: 10 Feb 2011 
Хиппей (support team)
User avatar
Joined: 30 Jul 2007
Posts: 97011
Lоcаtion: Киев (Kyiv, UA)
Age: 44
Name: Andrey
Серёг, в твоем первом сообщении есть кнопочка Image
Это на будущее :dance:

_________________


Top
 Profile E-mail  
 
 
PostPosted: 10 Feb 2011 
хард н хэвщик (support team)
User avatar
Joined: 02 Jun 2008
Posts: 16879
Lоcаtion: Н.Новгород
Age: 30
Name: Артем
хм, в гугле что-то совсем голяк по этому диску :fingal: искать будем долго... :vic:


Top
 Profile  
 
 
PostPosted: 10 Feb 2011 
Хиппей (support team)
User avatar
Joined: 30 Jul 2007
Posts: 97011
Lоcаtion: Киев (Kyiv, UA)
Age: 44
Name: Andrey
Инфы валом, а вот искать точно будет долго :pardon:

http://gemm.com/q.cgi?rb=CDSNIPER&artis ... +Mentality

_________________


Top
 Profile E-mail  
 
 
PostPosted: 16 Sep 2012 
Персональный статус
Joined: 11 Sep 2010
Posts: 429
Lоcаtion: Тверь
Age: 44
Name: Сергей
Jimmy Ryser - Manana Mentality (1994) 320 kbt/s

http://narod.ru/disk/61077438001.dac090fc17ee030ed176f45bc15cef91/Jimmy%20Ryser-Manana%20Mentality(1994).rar.html

http://depositfiles.com/files/6smzrvq9y


Top
 Profile E-mail  
 
 
PostPosted: 16 Sep 2012 
хард н хэвщик (support team)
User avatar
Joined: 02 Jun 2008
Posts: 16879
Lоcаtion: Н.Новгород
Age: 30
Name: Артем
спасибо :thanx:
лосик http://www.rockrusia.ru/folk-metal/4593 ... -1994.html


Top
 Profile  
 
 
PostPosted: 17 Sep 2012 
Хиппей (support team)
User avatar
Joined: 30 Jul 2007
Posts: 97011
Lоcаtion: Киев (Kyiv, UA)
Age: 44
Name: Andrey
Странный запрос так же странно и закрыт спустя полтора года :pardon:

_________________


Top
 Profile E-mail  
 
 
PostPosted: 22 Nov 2012 
Хиппей (support team)
User avatar
Joined: 30 Jul 2007
Posts: 97011
Lоcаtion: Киев (Kyiv, UA)
Age: 44
Name: Andrey
Jimmy Ryser - 1994 - Manana Mentality [flac tracks]

Image

miror: MultiUp l Narod

Альбом пока не слушал...

log
Exact Audio Copy V1.0 beta 3 from 29. August 2011

EAC extraction logfile from 19. July 2012, 8:13

Jimmy Ryser / Manana Mentality

Used drive : ASUS DRW-1814BLT Adapter: 5 ID: 0

Read mode : Secure
Utilize accurate stream : Yes
Defeat audio cache : Yes
Make use of C2 pointers : No

Read offset correction : 6
Overread into Lead-In and Lead-Out : No
Fill up missing offset samples with silence : Yes
Delete leading and trailing silent blocks : No
Null samples used in CRC calculations : Yes
Used interface : Native Win32 interface for Win NT & 2000
Gap handling : Appended to previous track

Used output format : User Defined Encoder
Selected bitrate : 1024 kBit/s
Quality : High
Add ID3 tag : No
Command line compressor : C:\Program Files (x86)\Exact Audio Copy\Flac\flac.exe
Additional command line options : -8 -V -T "ARTIST=%artist%" -T "TITLE=%title%" -T "ALBUM=%albumtitle%" -T "DATE=%year%" -T "TRACKNUMBER=%tracknr%" -T "GENRE=%genre%" -T "PERFORMER=%albuminterpret%" -T "COMPOSER=%composer%" %haslyrics%--tag-from-file=LYRICS="%lyricsfile%"%haslyrics% -T "ALBUMARTIST=%albumartist%" -T "DISCNUMBER=%cdnumber%" -T "TOTALDISCS=%totalcds%" -T "TOTALTRACKS=%numtracks%" -T "COMMENT=%comment%" %source% -o %dest%


TOC of the extracted CD

Track | Start | Length | Start sector | End sector
---------------------------------------------------------
1 | 0:00.00 | 4:18.63 | 0 | 19412
2 | 4:18.63 | 4:21.47 | 19413 | 39034
3 | 8:40.35 | 4:36.05 | 39035 | 59739
4 | 13:16.40 | 3:59.13 | 59740 | 77677
5 | 17:15.53 | 4:47.45 | 77678 | 99247
6 | 22:03.23 | 4:04.07 | 99248 | 117554
7 | 26:07.30 | 4:06.45 | 117555 | 136049
8 | 30:14.00 | 4:32.28 | 136050 | 156477
9 | 34:46.28 | 6:39.25 | 156478 | 186427
10 | 41:25.53 | 3:40.22 | 186428 | 202949


Track 1

Filename C:\EAC Rips\Jimmy Ryser - Manana Mentality (1994) [FLAC]\01 - Wandering Mind.wav

Pre-gap length 0:00:02.00

Peak level 99.5 %
Extraction speed 3.5 X
Track quality 100.0 %
Test CRC 1415355E
Copy CRC 1415355E
Track not present in AccurateRip database
Copy OK

Track 2

Filename C:\EAC Rips\Jimmy Ryser - Manana Mentality (1994) [FLAC]\02 - Down Across The Water.wav

Pre-gap length 0:00:03.44

Peak level 100.0 %
Extraction speed 2.6 X
Track quality 99.9 %
Test CRC 1C577347
Copy CRC 1C577347
Track not present in AccurateRip database
Copy OK

Track 3

Filename C:\EAC Rips\Jimmy Ryser - Manana Mentality (1994) [FLAC]\03 - Shine, Shine.wav

Pre-gap length 0:00:02.40

Peak level 100.0 %
Extraction speed 4.3 X
Track quality 100.0 %
Test CRC 0B758481
Copy CRC 0B758481
Track not present in AccurateRip database
Copy OK

Track 4

Filename C:\EAC Rips\Jimmy Ryser - Manana Mentality (1994) [FLAC]\04 - I Believe You.wav

Pre-gap length 0:00:01.80

Peak level 98.6 %
Extraction speed 4.5 X
Track quality 100.0 %
Test CRC 7AA171DA
Copy CRC 7AA171DA
Track not present in AccurateRip database
Copy OK

Track 5

Filename C:\EAC Rips\Jimmy Ryser - Manana Mentality (1994) [FLAC]\05 - Look At The Paper.wav

Pre-gap length 0:00:03.30

Peak level 98.1 %
Extraction speed 4.9 X
Track quality 100.0 %
Test CRC 15442421
Copy CRC 15442421
Track not present in AccurateRip database
Copy OK

Track 6

Filename C:\EAC Rips\Jimmy Ryser - Manana Mentality (1994) [FLAC]\06 - Autumn.wav

Pre-gap length 0:00:01.66

Peak level 76.7 %
Extraction speed 5.1 X
Track quality 100.0 %
Test CRC 2FFA583E
Copy CRC 2FFA583E
Track not present in AccurateRip database
Copy OK

Track 7

Filename C:\EAC Rips\Jimmy Ryser - Manana Mentality (1994) [FLAC]\07 - Take You Down.wav

Pre-gap length 0:00:03.40

Peak level 100.0 %
Extraction speed 5.3 X
Track quality 100.0 %
Test CRC 23717A54
Copy CRC 23717A54
Track not present in AccurateRip database
Copy OK

Track 8

Filename C:\EAC Rips\Jimmy Ryser - Manana Mentality (1994) [FLAC]\08 - Packed Up Every Piece.wav

Pre-gap length 0:00:02.20

Peak level 68.5 %
Extraction speed 5.6 X
Track quality 100.0 %
Test CRC 4D62EF83
Copy CRC 4D62EF83
Track not present in AccurateRip database
Copy OK

Track 9

Filename C:\EAC Rips\Jimmy Ryser - Manana Mentality (1994) [FLAC]\09 - Running Away.wav

Peak level 100.0 %
Extraction speed 6.1 X
Track quality 100.0 %
Test CRC AD3FC476
Copy CRC AD3FC476
Track not present in AccurateRip database
Copy OK

Track 10

Filename C:\EAC Rips\Jimmy Ryser - Manana Mentality (1994) [FLAC]\10 - The Big Tree.wav

Pre-gap length 0:00:02.73

Peak level 70.6 %
Extraction speed 5.9 X
Track quality 100.0 %
Test CRC B25DD960
Copy CRC B25DD960
Track not present in AccurateRip database
Copy OK


None of the tracks are present in the AccurateRip database

No errors occurred

End of status report

---- CUETools DB Plugin V2.1.3

[CTDB TOCID: v5QwNDGAH8_o00OoqFZdHQh9ARA-] disk not present in database, Submit result: v5QwNDGAH8_o00OoqFZdHQh9ARA- has been uploaded


==== Log checksum FCD3ADA51F3C1A1411150FED1DEE48863804F6AD8414F385AFA24CE577F1895E ====

cue
REM GENRE Rock
REM DATE 1994
REM DISCID 8D0A920A
REM COMMENT "ExactAudioCopy v1.0b3"
FILE "01 - Wandering Mind.wav" WAVE
TRACK 01 AUDIO
INDEX 01 00:00:00
TRACK 02 AUDIO
INDEX 00 04:15:30
FILE "02 - Down Across The Water.wav" WAVE
INDEX 01 00:00:00
TRACK 03 AUDIO
INDEX 00 04:19:17
FILE "03 - Shine, Shine.wav" WAVE
INDEX 01 00:00:00
TRACK 04 AUDIO
INDEX 00 04:34:20
FILE "04 - I Believe You.wav" WAVE
INDEX 01 00:00:00
TRACK 05 AUDIO
INDEX 00 03:55:65
FILE "05 - Look At The Paper.wav" WAVE
INDEX 01 00:00:00
TRACK 06 AUDIO
INDEX 00 04:45:70
FILE "06 - Autumn.wav" WAVE
INDEX 01 00:00:00
TRACK 07 AUDIO
INDEX 00 04:00:52
FILE "07 - Take You Down.wav" WAVE
INDEX 01 00:00:00
TRACK 08 AUDIO
INDEX 00 04:04:30
FILE "08 - Packed Up Every Piece.wav" WAVE
INDEX 01 00:00:00
FILE "09 - Running Away.wav" WAVE
TRACK 09 AUDIO
INDEX 01 00:00:00
TRACK 10 AUDIO
INDEX 00 06:36:45
FILE "10 - The Big Tree.wav" WAVE
INDEX 01 00:00:00

_________________


Top
 Profile E-mail  
 
 
PostPosted: 23 Nov 2012 
консэрваторъ
Joined: 11 Aug 2007
Posts: 14416
Lоcаtion: Псков
Age: 43
Name: Сергей
Scatterbrain wrote:
Странный запрос так же странно и закрыт

и так же странен тот факт, что он находится в анонсах... правда благодаря этому имеем одну тему вместо двух...
Quote:
Рок направление: Rock, Folk, AOR

да и раздел для него мог бы быть аорный видимо...

_________________
THRASH 'EM ALL


Top
 Profile E-mail  
 
 
PostPosted: 23 Nov 2012 
Хиппей (support team)
User avatar
Joined: 30 Jul 2007
Posts: 97011
Lоcаtion: Киев (Kyiv, UA)
Age: 44
Name: Andrey
Перенёс эту тему из AOR'a с "Бухту" чисто из-за лосинового формата файла.
Логика простая - здесь и раньше AOR проскакивал. Кабы был альбом в таких направлениях как Pop, Grindcore или Industrial, например, топик остался бы в "Неформате".
В общем, сам путаюсь еще, AOR это или нет, потому и решено было перенести в "Бухту".
Просьба откликнуться тем, кто данный альбомчик слушал.

_________________


Top
 Profile E-mail  
 
 
PostPosted: 23 Feb 2013 
Хиппей (support team)
User avatar
Joined: 30 Jul 2007
Posts: 97011
Lоcаtion: Киев (Kyiv, UA)
Age: 44
Name: Andrey
Послушал туда и обратно несколько раз.

AOR как AOR :vic:
Средненький такой себе серенький альбомчик... :bore:

3/10

_________________


Top
 Profile E-mail  
 
Display posts from previous:  Sort by  
Post new topic Reply to topic  [ 13 posts ] 

All times are UTC + 3 hours


Who is online

Users browsing this forum: No registered users and 1 guest


You cannot post new topics in this forum
You cannot reply to topics in this forum
You cannot edit your posts in this forum
You cannot delete your posts in this forum
You cannot post attachments in this forum

Search for:
Яндекс.Метрика
Powered by phpBB © 2000, 2002, 2005, 2007 phpBB Group