\m/ 80's metal \m/

Информационно-аналитический форум "80 см пыли" (In Search We Trust) "У нас никто никуда не спешит"
Железнодорожная биржа - RailAgent
It is currently 16 Dec 2017

All times are UTC + 3 hours

Spoiler
Chat - temporary registration for foreign users (please leave your application here)







Post new topic Reply to topic  [ 1 post ] 
Author Message
 
PostPosted: 18 Dec 2010 
Работнечег
User avatar
Joined: 28 Aug 2007
Posts: 5019
Lоcаtion: г. Москва
Age: 28
Name: Дима
Image

Band: Jester's March
Album: Acts
Label: SPV / Steamhammer
Genre: Progressive Speed/Thrash Metal
Country: Germany
Format: Flac + Log + Cue + Covers
Size: 266 Mb

Line-Up:
Vocals : Olaf Bilic
Guitars : Michael Bilic
Bass : Martin Hirsch
Drums : Oliver Schürtrumpf


Tracklist:
1. News 00:14
2. Paralized 03:59
3. Run 05:05
4. Take the Pain 03:58
5. Innocence 04:20
6. No Man's Land 04:03
7. Agony 01:20
8. Start Fighting 03:07
9. Spellbound 03:40
10. Leaving 03:35
Total playing time 33:00

LOG
Exact Audio Copy V0.99 prebeta 5 from 4. May 2009

EAC extraction logfile from 11. December 2010, 14:58

Jester's March / Acts

Used drive : PIONEER DVD-RW DVR-116D Adapter: 0 ID: 0

Read mode : Secure
Utilize accurate stream : Yes
Defeat audio cache : Yes
Make use of C2 pointers : No

Read offset correction : 96
Overread into Lead-In and Lead-Out : No
Fill up missing offset samples with silence : Yes
Delete leading and trailing silent blocks : No
Null samples used in CRC calculations : Yes
Used interface : Native Win32 interface for Win NT & 2000

Used output format : User Defined Encoder
Selected bitrate : 32 kBit/s
Quality : High
Add ID3 tag : No
Command line compressor : C:\Program Files\Exact Audio Copy\Flac\flac.exe
Additional command line options : -6 -V %s


TOC of the extracted CD

Track | Start | Length | Start sector | End sector
---------------------------------------------------------
1 | 0:00.00 | 0:14.58 | 0 | 1107
2 | 0:14.58 | 3:59.27 | 1108 | 19059
3 | 4:14.10 | 5:07.15 | 19060 | 42099
4 | 9:21.25 | 3:58.25 | 42100 | 59974
5 | 13:19.50 | 4:21.65 | 59975 | 79614
6 | 17:41.40 | 4:03.53 | 79615 | 97892
7 | 21:45.18 | 1:20.47 | 97893 | 103939
8 | 23:05.65 | 3:08.48 | 103940 | 118087
9 | 26:14.38 | 3:40.20 | 118088 | 134607
10 | 29:54.58 | 3:41.70 | 134608 | 151252
11 | 33:36.53 | 3:36.00 | 151253 | 167452


Range status and errors

Selected range

Filename D:\Музыка\Lossless\Jester's March - Acts (1992)\Jester's March - Acts.wav

Peak level 97.0 %
Range quality 100.0 %
Copy CRC 6447D1F6
Copy OK

No errors occurred


AccurateRip summary

Track 1 accurately ripped (confidence 6) [31B1D3D3]
Track 2 accurately ripped (confidence 5) [B63561D1]
Track 3 accurately ripped (confidence 5) [D6A8DC18]
Track 4 accurately ripped (confidence 6) [48AFCA08]
Track 5 accurately ripped (confidence 6) [BDEF079B]
Track 6 accurately ripped (confidence 5) [214A1378]
Track 7 accurately ripped (confidence 6) [89FFF83E]
Track 8 accurately ripped (confidence 6) [6029BB74]
Track 9 accurately ripped (confidence 6) [5FB6BA10]
Track 10 accurately ripped (confidence 6) [93AB30A6]
Track 11 accurately ripped (confidence 5) [EC23A5F7]

All tracks accurately ripped

End of status report

CUE
REM GENRE "Progressive Speed/Thrash Metal"
REM DATE 1992
REM DISCID 8A08B80B
REM COMMENT "ExactAudioCopy v0.99pb5"
PERFORMER "Jester's March"
TITLE "Acts"
FILE "Jester's March - Acts.flac" WAVE
TRACK 01 AUDIO
TITLE "News"
PERFORMER "Jester's March"
INDEX 01 00:00:00
TRACK 02 AUDIO
TITLE "Paralized"
PERFORMER "Jester's March"
INDEX 01 00:14:58
TRACK 03 AUDIO
TITLE "Run"
PERFORMER "Jester's March"
INDEX 01 04:14:10
TRACK 04 AUDIO
TITLE "Take The Pain"
PERFORMER "Jester's March"
INDEX 00 09:19:63
INDEX 01 09:21:25
TRACK 05 AUDIO
TITLE "Innocence"
PERFORMER "Jester's March"
INDEX 01 13:19:50
TRACK 06 AUDIO
TITLE "No Man's Land"
PERFORMER "Jester's March"
INDEX 00 17:40:48
INDEX 01 17:41:40
TRACK 07 AUDIO
TITLE "Agony"
PERFORMER "Jester's March"
INDEX 01 21:45:18
TRACK 08 AUDIO
TITLE "Start Fighting"
PERFORMER "Jester's March"
INDEX 01 23:05:65
TRACK 09 AUDIO
TITLE "Don't Turn"
PERFORMER "Jester's March"
INDEX 00 26:13:38
INDEX 01 26:14:38
TRACK 10 AUDIO
TITLE "Spellbound"
PERFORMER "Jester's March"
INDEX 00 29:53:63
INDEX 01 29:54:58
TRACK 11 AUDIO
TITLE "Leaving"
PERFORMER "Jester's March"
INDEX 00 33:35:45
INDEX 01 33:36:53

Spectrum
Image


http://ifolder.ru/20761843


Top
 Profile E-mail  
 
Display posts from previous:  Sort by  
Post new topic Reply to topic  [ 1 post ] 

All times are UTC + 3 hours


Who is online

Users browsing this forum: No registered users and 1 guest


You cannot post new topics in this forum
You cannot reply to topics in this forum
You cannot edit your posts in this forum
You cannot delete your posts in this forum
You cannot post attachments in this forum

Search for:
Яндекс.Метрика
Powered by phpBB © 2000, 2002, 2005, 2007 phpBB Group